<?xml version="1.0" standalone="no"?>
<!DOCTYPE svg PUBLIC "-//W3C//DTD SVG 1.1//EN" "http://www.w3.org/Graphics/SVG/1.1/DTD/svg11.dtd" >
<svg xmlns="http://www.w3.org/2000/svg">
<metadata>Generated by IcoMoon</metadata>
<defs>
<font id="icomoon" horiz-adv-x="1024">
<font-face units-per-em="1024" ascent="960" descent="-64" />
<missing-glyph horiz-adv-x="1024" />
<glyph unicode="&#x20;" horiz-adv-x="512" d="" />
<glyph unicode="&#xe900;" glyph-name="airplane" d="M887.096 586.018c-0.546 0-1.102-0.022-1.658-0.044l-539.704-26.824-55.408 93.918c-7.59 12.866-22.806 19.11-37.21 15.338l-72.348-18.922c-9.138-2.394-16.84-8.548-21.192-16.94-4.352-8.404-4.942-18.242-1.626-27.092l59.050-157.452-59.060-157.452c-3.316-8.86-2.728-18.7 1.626-27.092 4.34-8.392 12.044-14.548 21.192-16.94l72.348-18.922c2.816-0.746 5.654-1.090 8.46-1.090 11.71 0 22.828 6.166 28.906 16.674l55.464 95.888 539.504-26.814c0.546-0.034 1.102-0.044 1.658-0.044 75.486 0 136.904 61.418 136.904 136.904s-61.42 136.906-136.906 136.906zM887.852 378.992l-558.96 27.782c-12.5 0.768-24.298-5.788-30.564-16.628l-52.926-91.514-11.92 3.116 50.444 134.534c2.828 7.568 2.828 15.894 0 23.452l-50.444 134.522 12.132 3.172 52.858-89.588c6.31-10.696 18.132-17.118 30.42-16.384l558.96 27.782c37.666-0.412 69.364-32.356 69.364-70.122s-31.698-69.702-69.364-70.124zM733.318 527.382l58.234 32.68-163.618 291.616c-5.91 10.53-17.040 17.052-29.118 17.052h-141.356c-10.574 0-20.514-5.008-26.814-13.49-6.3-8.492-8.204-19.456-5.142-29.574l91.27-301.634 63.91 19.344-78.234 258.572h76.812l154.056-274.566zM734.442 369.764l-155.148-275.712h-76.844l78.236 258.572-63.912 19.344-91.27-301.634c-3.060-10.118-1.158-21.082 5.142-29.574s16.24-13.49 26.814-13.49h141.356c12.066 0 23.184 6.5 29.096 17.008l164.73 292.73-58.2 32.756zM288.278 804.174h-200.348c-18.444 0-33.392-14.948-33.392-33.392s14.948-33.392 33.392-33.392h200.348c18.444 0 33.392 14.948 33.392 33.392s-14.948 33.392-33.392 33.392zM288.278 158.608h-200.348c-18.444 0-33.392-14.948-33.392-33.392s14.948-33.392 33.392-33.392h200.348c18.444 0 33.392 14.948 33.392 33.392s-14.948 33.392-33.392 33.392zM122.434 481.392h-89.042c-18.444 0-33.392-14.948-33.392-33.392s14.948-33.392 33.392-33.392h89.044c18.444 0 33.392 14.948 33.392 33.392s-14.95 33.392-33.394 33.392z" />
<glyph unicode="&#xe901;" glyph-name="cargo-ship" d="M994 36c-39.196 0-60.094-13.862-76.884-25-13.62-9.034-22.616-15-43.722-15s-30.102 5.966-43.72 15c-16.792 11.138-37.69 25-76.886 25-39.182 0-60.068-13.866-76.854-25.006-13.602-9.030-22.59-14.994-43.67-14.994-21.046 0-30.024 5.962-43.608 14.988-16.778 11.142-37.652 25.012-76.814 25.012-39.174 0-60.056-13.866-76.836-25.008-13.598-9.028-22.58-14.992-43.648-14.992-21.058 0-30.038 5.962-43.628 14.99-16.778 11.142-37.658 25.010-76.826 25.010s-60.046-13.868-76.824-25.010c-13.592-9.028-22.57-14.99-43.628-14.99-21.056 0-30.036 5.962-43.626 14.99-16.78 11.142-37.658 25.010-76.826 25.010-16.568 0-30-13.432-30-30s13.432-30 30-30c21.058 0 30.038-5.962 43.628-14.99 16.778-11.142 37.658-25.010 76.824-25.010 39.168 0 60.046 13.868 76.824 25.010 13.592 9.028 22.57 14.99 43.628 14.99s30.038-5.962 43.628-14.99c16.778-11.142 37.656-25.010 76.824-25.010 39.174 0 60.056 13.866 76.836 25.008 13.598 9.028 22.58 14.992 43.648 14.992 21.048 0 30.024-5.962 43.61-14.988 16.776-11.142 37.65-25.012 76.81-25.012 39.182 0 60.068 13.866 76.854 25.006 13.604 9.030 22.59 14.994 43.67 14.994 21.108 0 30.104-5.966 43.722-15 16.792-11.138 37.688-25 76.884-25s60.096 13.862 76.886 25c13.62 9.034 22.616 15 43.72 15 16.568 0 30 13.432 30 30s-13.428 30-29.996 30zM542 666c0-16.569-13.431-30-30-30s-30 13.431-30 30c0 16.569 13.431 30 30 30s30-13.431 30-30zM662 666c0-16.569-13.431-30-30-30s-30 13.431-30 30c0 16.569 13.431 30 30 30s30-13.431 30-30zM422 666c0-16.569-13.431-30-30-30s-30 13.431-30 30c0 16.569 13.431 30 30 30s30-13.431 30-30zM30 116c21.058 0 30.038-5.962 43.628-14.99 16.778-11.142 37.658-25.010 76.824-25.010 39.168 0 60.046 13.868 76.824 25.010 13.592 9.028 22.57 14.99 43.628 14.99s30.038-5.962 43.628-14.99c16.778-11.142 37.656-25.010 76.824-25.010 39.174 0 60.056 13.866 76.836 25.008 13.598 9.028 22.58 14.992 43.648 14.992 21.048 0 30.024-5.962 43.61-14.988 16.776-11.142 37.65-25.012 76.81-25.012 39.182 0 60.068 13.866 76.854 25.006 13.604 9.030 22.59 14.994 43.67 14.994 21.108 0 30.104-5.966 43.722-15 16.792-11.138 37.688-25 76.884-25s60.096 13.862 76.886 25c13.62 9.034 22.616 15 43.72 15 16.568 0 30 13.432 30 30s-13.432 30-30 30c-39.196 0-60.094-13.862-76.884-25-13.62-9.034-22.616-15-43.722-15s-30.102 5.966-43.72 15c-9.646 6.4-20.67 13.684-35.718 18.736l86.076 225.568c5.796 15.196-1.568 32.242-16.608 38.436l-101.42 41.762v310.498c0 16.568-13.432 30-30 30h-90v114c0 16.568-13.432 30-30 30h-200c-16.568 0-30-13.432-30-30v-114h-90c-16.568 0-30-13.432-30-30v-310.498l-101.422-41.762c-15.028-6.188-22.396-23.216-16.618-38.406l85.818-225.598c-15.040-5.054-26.058-12.344-35.698-18.746-13.592-9.028-22.57-14.99-43.628-14.99-21.056 0-30.036 5.962-43.626 14.99-16.78 11.142-37.658 25.010-76.826 25.010-16.568 0-30-13.432-30-30s13.432-30 30-30zM731.54 174.474c-26.038-3.886-42.154-14.55-55.608-23.48-13.602-9.030-22.59-14.994-43.67-14.994-21.046 0-30.024 5.962-43.608 14.988-11.836 7.862-25.75 17.060-46.654 21.808v328.408l271.55-111.816zM442 900h140v-84h-140zM322 756h380v-255.792l-178.578 73.532c-7.316 3.012-15.528 3.012-22.844 0l-178.578-73.532zM482 501.204v-328.336c-21.090-4.724-35.094-13.972-46.994-21.874-13.598-9.028-22.58-14.992-43.648-14.992-21.058 0-30.038 5.962-43.628 14.99-13.444 8.928-29.548 19.588-55.558 23.48l-81.752 214.904z" />
<glyph unicode="&#xe902;" glyph-name="truck" d="M980.182 342.7l-75.516 21.334v191.3h-85.172l-1.288 0.744c4.17 20.514 6.278 41.48 6.278 62.588s-2.108 42.074-6.278 62.588l38.848 22.428-98.9 171.298-38.908-22.462c-31.602 28.036-68.432 49.328-108.348 62.632v44.85h-197.796v-44.85c-39.916-13.306-76.746-34.596-108.348-62.632l-38.908 22.462-98.898-171.296 38.848-22.428c-4.17-20.514-6.278-41.48-6.278-62.588 0-1.334 0.034-2.666 0.050-4h-155.75v-581.698h90.886c9.648-55.016 57.74-96.97 115.478-96.97s105.83 41.954 115.478 96.968h292.68c9.648-55.014 57.74-96.968 115.478-96.968s105.83 41.954 115.478 96.968h90.886zM831.092 53.272c0-31.58-25.694-57.272-57.274-57.272s-57.274 25.692-57.274 57.272 25.694 57.272 57.274 57.272 57.274-25.692 57.274-57.272zM307.454 53.272c0-31.58-25.694-57.272-57.274-57.272s-57.274 25.692-57.274 57.272 25.694 57.272 57.274 57.272c31.582 0 57.274-25.692 57.274-57.272zM250.182 170.544c-50.736 0-94.038-32.392-110.344-77.576h-36.020v218.366h314.422l-34.12-34.12 42.426-42.426 106.544 106.546-106.544 106.546-42.426-42.426 34.12-34.12h-314.422v183.332h548.848v-461.698h-292.14c-16.306 45.186-59.608 77.576-110.344 77.576zM259.518 618.666c0 23.506 3.222 46.772 9.578 69.148l6.388 22.49-26.576 15.342 38.898 67.374 26.664-15.394 16.282 16.788c32.832 33.852 74.204 57.766 119.644 69.156l22.706 5.692v30.738h77.796v-30.738l22.706-5.692c45.44-11.39 86.812-35.304 119.644-69.156l16.282-16.788 26.664 15.394 38.898-67.374-26.576-15.342 6.388-22.49c6.356-22.376 9.578-45.642 9.578-69.148 0-21.482-2.722-42.75-8.036-63.332h-43.78v59.332h-64.102c0.038 1.332 0.102 2.658 0.102 4 0 75.358-61.308 136.668-136.666 136.668s-136.666-61.308-136.666-136.668c0-1.342 0.062-2.668 0.102-4h-115.85c-0.020 1.334-0.068 2.664-0.068 4zM435.334 618.666c0 42.274 34.392 76.668 76.666 76.668s76.666-34.392 76.666-76.668c0-1.342-0.036-2.674-0.104-4h-153.124c-0.068 1.326-0.104 2.658-0.104 4zM920.182 92.968h-36.020c-16.306 45.184-59.608 77.576-110.344 77.576-22.394 0-43.334-6.318-61.152-17.25v342.040h132v-176.7l75.516-21.334z" />
<glyph unicode="&#xe903;" glyph-name="shield" d="M591.412 394.362c-1.393 4.18-2.786 9.752-4.18 13.932s-4.18 8.359-6.966 11.146c-2.786 4.18-5.573 6.966-9.752 9.752s-6.966 6.966-11.146 9.752-8.359 5.573-12.539 8.359-9.752 5.573-13.932 6.966c-5.573 2.786-9.752 4.18-15.325 5.573-2.786 1.393-5.573 1.393-6.966 2.786-2.786 1.393-5.573 2.786-6.966 2.786-2.786 1.393-4.18 2.786-6.966 4.18-1.393 1.393-4.18 2.786-5.573 5.573-1.393 1.393-2.786 4.18-4.18 6.966-2.786 2.786-2.786 5.573-2.786 8.359s0 5.573 0 8.359 1.393 5.573 2.786 6.966c1.393 2.786 2.786 4.18 4.18 6.966s4.18 4.18 5.573 5.573c2.786 1.393 5.573 2.786 8.359 4.18s5.573 1.393 9.752 1.393c1.393 0 4.18 0 5.573 0s4.18 0 5.573 0c2.786 0 5.573 0 9.752-1.393 2.786 0 6.966-1.393 9.752-1.393s4.18-1.393 6.966-1.393c2.786-1.393 5.573-1.393 6.966-1.393l9.752-2.786 5.573 39.010 1.393 6.966-6.966 2.786c-2.786 1.393-4.18 1.393-6.966 1.393-1.393 0-4.18 1.393-6.966 1.393s-5.573 1.393-8.359 1.393-5.573 1.393-8.359 1.393h-2.786v33.437h-43.189v-36.223h-2.786c-5.573-1.393-11.146-4.18-15.325-6.966s-9.752-5.573-13.932-9.752-8.359-8.359-11.146-12.539c-2.786-4.18-5.573-9.752-8.359-13.932-2.786-5.573-4.18-11.146-5.573-16.718s-1.393-11.146-1.393-18.112c0-4.18 0-9.752 1.393-13.932s2.786-9.752 4.18-13.932c1.393-4.18 4.18-8.359 6.966-11.146 2.786-4.18 5.573-6.966 9.752-9.752s8.359-5.573 11.146-8.359c4.18-2.786 8.359-5.573 13.932-8.359s9.752-4.18 15.325-6.966c5.573-2.786 9.752-4.18 15.325-5.573 2.786-1.393 5.573-1.393 6.966-2.786 2.786-1.393 4.18-2.786 6.966-4.18s4.18-2.786 5.573-4.18c1.393-1.393 2.786-2.786 4.18-5.573 1.393-1.393 2.786-4.18 2.786-6.966 1.393-2.786 1.393-5.573 1.393-8.359s0-5.573 0-8.359-1.393-5.573-2.786-6.966c-1.393-2.786-2.786-4.18-5.573-5.573-1.393-1.393-4.18-2.786-6.966-4.18s-4.18-2.786-6.966-2.786c-2.786-1.393-5.573-1.393-8.359-1.393s-4.18 0-6.966 0-4.18 0-6.966 0-6.966 0-9.752 1.393c-2.786 0-6.966 1.393-9.752 1.393-4.18 1.393-8.359 1.393-11.146 2.786-4.18 1.393-8.359 2.786-11.146 4.18-1.393 0-2.786 1.393-4.18 1.393-1.393 1.393-2.786 1.393-4.18 2.786l-11.146 5.573-1.393-11.146-4.18-32.044-1.393-5.573 5.573-2.786c4.18-1.393 8.359-4.18 12.539-5.573s8.359-2.786 12.539-4.18c4.18-1.393 8.359-2.786 13.932-2.786 4.18-1.393 9.752-1.393 13.932-2.786h2.786v-36.223h45.976v36.223h2.786c5.573 1.393 11.146 4.18 16.718 6.966s9.752 5.573 13.932 9.752 8.359 8.359 11.146 12.539c2.786 4.18 5.573 9.752 8.359 13.932 2.786 5.573 4.18 11.146 5.573 16.718s1.393 11.146 1.393 16.718c-1.393 5.573-1.393 9.752-2.786 15.325zM512 689.72c-140.713 0-253.562-114.242-253.562-253.562s112.849-254.955 253.562-254.955c140.713 0 253.562 114.242 253.562 253.562s-112.849 254.955-253.562 254.955zM512 225.785c-115.635 0-208.98 93.344-208.98 208.98s93.344 208.98 208.98 208.98 208.98-93.344 208.98-208.98c0-115.635-93.344-208.98-208.98-208.98zM911.848 861.083c-5.573 4.18-13.932 5.573-20.898 2.786-44.582-18.112-87.771-26.471-129.567-26.471-146.286 0-231.271 111.456-231.271 112.849-4.18 5.573-11.146 9.752-18.112 9.752s-13.932-2.786-18.112-9.752c-1.393-1.393-84.985-112.849-231.271-112.849-41.796 0-84.985 8.359-129.567 26.471-6.966 2.786-15.325 1.393-20.898-2.786s-9.752-11.146-9.752-18.112v-462.541c0-161.611 126.781-369.197 404.027-443.037 1.393 0 4.18-1.393 5.573-1.393s4.18 0 5.573 1.393c277.246 73.839 404.027 281.426 404.027 443.037v462.541c0 6.966-4.18 13.932-9.752 18.112zM512-19.418c-250.776 69.66-365.018 254.955-365.018 398.454v431.891c39.010-12.539 78.019-19.505 114.242-19.505 129.567 0 214.552 72.446 249.382 110.063 34.83-37.616 119.815-110.063 249.382-110.063 37.616 0 76.626 6.966 114.242 19.505v-431.891h2.786c0-143.499-114.242-328.795-365.018-398.454z" />
<glyph unicode="&#xe904;" glyph-name="delivery" d="M396.432 680.5l-112.411-112.411-30.739 30.739 112.411 112.411 30.739-30.739zM1023.58 390.878l-161.076 241.719h-198.248v-176.407h-71.823v176.407h-54.602c-17.431 132.935-129.785 233.949-267.76 233.949-150.366 0-270.071-122.015-270.071-270.071 0-99.544 53.972-186.067 135.035-232.269v-215.048h106.894c3.36-66.783 58.592-119.705 126.215-119.705s122.855 53.132 126.215 119.705h168.427c3.36-66.783 58.592-119.705 126.215-119.705s122.855 53.132 126.215 119.705h108.784v241.719h-0.42zM788.581 589.126h50.192l118.025-176.407h-168.217v176.407zM43.472 596.686c0 124.115 100.174 226.599 226.599 226.599 124.115 0 226.599-100.174 226.599-226.599s-100.174-226.599-226.599-226.599-226.599 102.274-226.599 226.599zM368.144 75.025c-44.522 0-80.643 36.121-80.643 80.643s36.121 80.643 80.643 80.643 80.643-36.121 80.643-80.643-36.331-80.643-80.643-80.643zM788.791 75.025c-44.522 0-80.643 36.121-80.643 80.643s36.121 80.643 80.643 80.643c44.522 0 80.643-36.121 80.643-80.643s-36.121-80.643-80.643-80.643zM980.108 192.84h-70.563v-0.21c-15.751 51.662-63.842 89.253-120.755 89.253s-105.004-37.591-120.755-89.253h-179.137c-15.751 51.662-63.842 89.253-120.755 89.253s-105.004-37.591-120.755-89.253h-68.883v151.626c28.561-10.080 59.222-15.541 91.564-15.541 145.536 0 266.080 113.614 269.861 260.41h8.82v-176.407h158.976v176.407h37.171v-219.879h235.209v-176.407zM248.23 794.724h43.472v-39.272h-43.472v39.272zM248.23 437.71h43.472v-39.272h-43.472v39.272zM71.823 618.317h39.272v-43.472h-39.272v43.472zM429.047 618.317h39.272v-43.472h-39.272v43.472z" />
<glyph unicode="&#xe905;" glyph-name="24-hours" d="M512 960c-248.703 0-450-201.266-450-450v-210c0-66.172 53.828-120 120-120v-154c0-16.57 13.43-30 30-30h210v-30c0-16.57 13.43-30 30-30h120c49.625 0 90 40.375 90 90s-40.375 90-90 90h-120c-16.57 0-30-13.43-30-30v-30h-180c0 59.188 0 466.375 0 514 0 16.57-13.43 30-30 30h-30c-18.68 0-36.367-4.289-52.148-11.938 36.258 177.766 193.828 311.938 382.148 311.938s345.891-134.172 382.148-311.938c-15.781 7.648-33.469 11.938-52.148 11.938h-30c-16.57 0-30-13.43-30-30v-360c0-16.57 13.43-30 30-30h30c66.172 0 120 53.828 120 120 0 24.398 0 183.102 0 210 0 248.703-201.266 450-450 450zM482 56h90c16.539 0 30-13.461 30-30s-13.461-30-30-30h-90zM182 540v-300c-33.086 0-60 26.914-60 60 0 21.125 0 152.258 0 180 0 33.086 26.914 60 60 60zM902 300c0-33.086-26.914-60-60-60v300c33.086 0 60-26.914 60-60zM452 360c16.57 0 30 13.43 30 30v120c0 16.57-13.43 30-30 30h-120c-16.57 0-30-13.43-30-30s13.43-30 30-30h90v-60h-90c-16.57 0-30-13.43-30-30v-120c0-16.57 13.43-30 30-30h120c16.57 0 30 13.43 30 30s-13.43 30-30 30h-90v60zM692 480c-16.57 0-30-13.43-30-30v-30h-60v90c0 16.57-13.43 30-30 30s-30-13.43-30-30v-120c0-16.57 13.43-30 30-30h90v-90c0-16.57 13.43-30 30-30s30 13.43 30 30c0 21.070 0 151.453 0 180 0 16.57-13.43 30-30 30z" />
<glyph unicode="&#xe906;" glyph-name="lawyer" d="M1023.708-29.816l-46.608 330.846c-9.958 70.688-63.792 127.002-133.96 140.134l-187.942 35.17c41.52 38.516 67.552 93.51 67.552 154.476v118.438c0 116.21-94.542 210.752-210.75 210.752s-210.75-94.542-210.75-210.75v-118.438c0-60.968 26.032-115.96 67.552-154.476l-187.942-35.172c-70.166-13.132-124.002-69.448-133.96-140.134l-46.606-330.846c-1.21-8.602 1.364-17.306 7.062-23.862s13.958-10.322 22.644-10.322h964c8.686 0 16.946 3.766 22.644 10.322s8.274 15.26 7.064 23.862zM541.086 207.030l-29.086-116.838-29.086 116.84 29.086 117.838zM473.696 420.062l-21.812-88.374-22 88.374zM572.118 331.69l-21.812 88.374h43.812zM512 900c83.124 0 150.75-67.626 150.75-150.75v-25.876c-16.584 5.266-30.452 15.322-41.93 30.4-14.426 18.95-19.302 38.82-19.306 38.836-2.792 12.35-13.034 21.618-25.598 23.164-12.572 1.548-24.75-4.962-30.45-16.266-26.97-53.48-81.684-79.478-167.266-79.478h-16.948v29.218c-0.002 83.126 67.624 150.752 150.748 150.752zM361.25 630.812v29.218h16.948c83.512 0 146.68 22.254 188.566 66.28 1.446-2.178 2.974-4.37 4.584-6.564 23.156-31.542 54.382-51.268 91.402-58.070v-30.864c0-83.124-67.626-150.75-150.75-150.75s-150.75 67.626-150.75 150.75zM106.314 292.66c6.362 45.16 40.754 81.138 85.584 89.528l177.322 33.184 104.396-419.372h-409.094zM550.384-4l104.396 419.372 177.322-33.184c44.828-8.388 79.222-44.368 85.584-89.528l41.792-296.66z" />
<glyph unicode="&#xe907;" glyph-name="global" d="M746.667 490.667c-152.917 0-277.333-124.416-277.333-277.333s124.416-277.333 277.333-277.333 277.333 124.416 277.333 277.333-124.416 277.333-277.333 277.333zM930.304 320h-76.971v76.971c31.957-18.603 58.368-45.013 76.971-76.971zM960 213.333c0-14.592-1.493-28.885-4.309-42.667h-102.357v85.333h102.357c2.816-13.781 4.309-28.075 4.309-42.667zM533.333 213.333c0 14.592 1.493 28.885 4.309 42.667h102.357v-85.333h-102.357c-2.816 13.781-4.309 28.075-4.309 42.667zM704 256h85.333v-85.333h-85.333zM789.333 422.357v-102.357h-85.333v102.357c13.781 2.816 28.075 4.309 42.667 4.309s28.885-1.493 42.667-4.309zM640 396.971v-76.971h-76.971c18.603 31.957 45.013 58.368 76.971 76.971zM563.029 106.667h76.971v-76.971c-31.957 18.603-58.368 45.013-76.971 76.971zM704 4.309v102.357h85.333v-102.357c-13.781-2.816-28.075-4.309-42.667-4.309s-28.885 1.493-42.667 4.309zM853.333 29.696v76.971h76.971c-18.603-31.957-45.013-58.368-76.971-76.971zM426.667 960l426.667-170.667-426.667-170.667-426.667 170.667zM384 543.829l-384 153.6v-420.096c0-8.96 5.547-16.896 13.952-20.011l370.048-136.32zM746.667 576c37.12 0 72.917-5.675 106.667-16.043v137.472l-384-153.6v-97.28c66.56 79.019 166.144 129.451 277.333 129.451z" />
<glyph unicode="&#xe908;" glyph-name="delivery-man" d="M270 178h254v110c0 49.62 40.38 90 90 90h19.26c-69.84 50.594-138.466 38.21-153.26 40v-30c0-66.16-53.84-120-120-120s-120 53.84-120 120v30h-30c-115.8 0-210-94.2-210-210v-242c0-16.56 13.44-30 30-30h90v212c0 16.56 13.44 30 30 30s30-13.44 30-30v-212h349.16c-7.356 21.316-4.63 34.648-5.16 62h-254c-16.56 0-30 13.44-30 30s13.44 30 30 30h254v60h-254c-16.56 0-30 13.44-30 30s13.44 30 30 30zM776 318h60v-80h-60zM994 318h-98v-110c0-16.568-13.432-30-30-30h-120c-16.568 0-30 13.432-30 30v110h-100c-16.568 0-30-13.432-30-30v-322c0-16.568 13.432-30 30-30h378c16.568 0 30 13.432 30 30v322c0 16.568-13.432 30-30 30zM149.566 614.894h1.050c4.646-87.114 65.15-163.23 149.384-188.23v-38.664c0-33.084 26.916-60 60-60s60 26.916 60 60v38.75c81.156 24.21 143.452 96.438 149.684 188.144h0.75c35.336 0 63.98 28.646 63.98 63.98 0 35.336-28.646 63.98-63.98 63.98h-0.422l-0.012 0.006c-71.272 92.8-270.12-35.766-420.012-0.004h-0.422c-35.336 0-63.98-28.646-63.98-63.98 0-35.338 28.644-63.982 63.98-63.982zM555.894 825.654c-30.428 78.52-106.758 134.346-195.894 134.346-97.468 0-179.63-66.748-203.202-156.93 112.698-33.718 282.682 67.106 399.096 22.584z" />
<glyph unicode="&#xe909;" glyph-name="processing" d="M392.526 430.345h-286.595l-88.276-141.241h290.147zM539.647 289.103h466.698l-88.276 141.241h-463.147zM123.586 253.793v-317.793h282.483v448.25l-78.284-130.457zM441.379 384.25v-448.25h459.034v317.793h-380.75zM829.793 6.621h35.31v-35.31h-35.31zM759.172 6.621h35.31v-35.31h-35.31zM688.552 6.621h35.31v-35.31h-35.31zM515.069 624.552h-73.69v194.207h123.586v141.241h-141.241c-68.129 0-123.586-55.44-123.586-123.586v-211.862h-73.69l144.31-168.379zM600.276 960h35.31v-141.241h-35.31zM670.897 960h35.31v-141.241h-35.31zM741.517 960h35.31v-141.241h-35.31z" />
<glyph unicode="&#xe90a;" glyph-name="spaceship" d="M886.142 318.142l-234.142 234.144v227.714c0 4.328-1.404 8.54-4 12l-120 160c-3.778 5.036-9.706 8-16 8-6.296 0-12.222-2.964-16-8l-120-160c-2.596-3.46-4-7.672-4-12v-227.714l-234.142-234.144c-3.75-3.752-5.858-8.838-5.858-14.142v-120c0-11.044 8.956-20 20-20h180v-20c0-11.044 8.954-20 20-20h320c11.044 0 20 8.956 20 20v20h180c11.044 0 20 8.956 20 20v120c0 5.304-2.108 10.39-5.858 14.142zM852 295.714v-7.714h-160v56c0 11.044-8.956 20-20 20h-20v131.714zM372 324h120v-80h-120zM412 428h200v-64h-200zM532 324h120v-80h-120zM512 906.666l100-133.332v-305.334h-200v75.99c0 0.006 0 0.014 0 0.020v229.324zM372 495.714v-131.714h-20c-11.046 0-20-8.956-20-20v-56h-160v7.714zM172 204v44h160v-44zM372 204h120v-40h-120zM652 164h-120v40h120zM692 204v44h160v-44zM432 88c-11.046 0-20-8.956-20-20v-112c0-11.044 8.954-20 20-20s20 8.956 20 20v112c0 11.044-8.954 20-20 20zM592 64c-11.044 0-20-8.956-20-20v-88c0-11.044 8.956-20 20-20s20 8.956 20 20v88c0 11.044-8.956 20-20 20zM540.442 608h-56.884c-6.384 0-11.558 5.174-11.558 11.558v136.884c0 6.384 5.174 11.558 11.558 11.558h56.884c6.384 0 11.558-5.174 11.558-11.558v-136.884c0-6.384-5.174-11.558-11.558-11.558z" />
<glyph unicode="&#xe90b;" glyph-name="disc-brake" d="M885.019 746.046c-89.623 89.623-208.784 138.981-335.531 138.981-34.776 0-69.463-3.844-103.381-11.416l-13.586 50.984c-3.414 12.744-11.906 23.614-23.296 29.82-11.060 6.030-23.764 7.22-35.77 3.362-32.044-10.302-63.29-23.464-93.053-39.19-14.97 8.138-32.692 8.37-47.566-0.156-87.061-48.776-142.487-104.203-191.259-191.259-8.532-14.876-8.298-32.6-0.16-47.572-15.722-29.76-28.884-61.006-39.19-93.051v-0.002c-3.86-12.006-2.666-24.71 3.362-35.772 6.208-11.39 17.076-19.88 29.844-23.302l50.958-13.578c-7.57-33.92-11.416-68.609-11.416-103.381 0-126.747 49.358-245.908 138.981-335.531 89.625-89.625 208.786-138.983 335.533-138.983s245.908 49.36 335.531 138.983c89.625 89.623 138.983 208.784 138.983 335.531s-49.362 245.906-138.985 335.531zM377.579 697.184c-0.112-0.064-0.224-0.13-0.334-0.198-23.244-14.030-44.794-30.91-64.057-50.172-19.26-19.262-36.142-40.814-50.172-64.057-0.066-0.112-0.132-0.222-0.198-0.336-17.060-29.55-36.186-41.674-63.2-38.778 18.726 48.996 47.93 94.099 85.285 131.455 37.354 37.356 82.455 66.557 131.455 85.285 2.894-27.012-9.23-46.138-38.78-63.2zM40.71 569.917c-0.768 1.408-0.9 2.844-0.406 4.384 10.812 33.626 25 66.295 42.174 97.111 4.352 7.808 2.992 17.556-3.328 23.878-3.888 3.888-4.958 8.376-2.864 12.002 0.044 0.076 0.086 0.152 0.13 0.23 45.482 81.213 94.843 130.579 176.061 176.063 0.076 0.042 0.152 0.086 0.228 0.128 3.63 2.096 8.118 1.024 12.004-2.864 6.32-6.324 16.068-7.684 23.878-3.33 30.818 17.176 63.49 31.364 97.111 42.174 1.54 0.496 2.974 0.366 4.386-0.404 1.82-0.992 3.206-2.832 3.792-5.024l29.092-109.171c-62.292-20-119.777-55.14-166.351-101.713-46.574-46.576-81.713-104.059-101.711-166.351l-109.149 29.084c-2.214 0.598-4.054 1.982-5.046 3.804zM549.488-24c-239.592 0-434.515 194.922-434.515 434.515 0 31.298 3.402 62.522 10.1 93.073l23.496-6.26c2.594-0.696 5.248-1.026 7.912-1.026 8.926 0 17.918 3.734 24.872 9.918 8.926-1.93 17.522-2.916 25.766-2.916 37.284 0 67.533 19.714 90.237 58.942 12.342 20.418 27.184 39.354 44.116 56.286 16.934 16.932 35.87 31.776 56.284 44.116 47.906 27.724 66.689 66.707 56.026 116.011 8.026 9.024 11.922 21.486 8.904 32.748l-6.268 23.524c30.552 6.698 61.776 10.1 93.073 10.1 239.592 0 434.515-194.922 434.515-434.515s-194.924-434.515-434.517-434.515zM165.571 632.369c5.48 9.59 2.148 21.806-7.442 27.288s-21.81 2.146-27.29-7.442l-0.008-0.014c-5.48-9.592-2.144-21.8 7.446-27.282 3.128-1.79 6.536-2.636 9.9-2.636 6.948 0 13.7 3.624 17.394 10.086zM317.738 791.799c3.578 0 7.2 0.958 10.468 2.97 9.408 5.79 12.34 18.108 6.55 27.516s-18.11 12.344-27.516 6.55l-0.012-0.008c-9.408-5.79-12.334-18.104-6.544-27.512 3.778-6.138 10.336-9.516 17.054-9.516zM549.488 650.512c-132.335 0-239.998-107.663-239.998-239.998 0-95.365 56.472-181.701 143.867-219.948 2.61-1.142 5.33-1.684 8.008-1.684 7.704 0.002 15.046 4.478 18.334 11.986 4.428 10.12-0.184 21.914-10.304 26.342-72.839 31.878-119.905 103.829-119.905 183.303 0 110.281 89.719 199.998 199.998 199.998s199.998-89.717 199.998-199.998c0-79.469-47.060-151.419-119.891-183.297-10.12-4.43-14.732-16.222-10.302-26.342s16.218-14.728 26.342-10.302c87.387 38.25 143.853 124.583 143.853 219.942-0.002 132.335-107.665 239.998-240 239.998zM569.488 550.509c0 11.044-8.954 20-20 20h-0.014c-11.046 0-19.994-8.956-19.994-20s8.962-20 20.008-20 20 8.956 20 20zM471.108 549.913l-0.012-0.006c-10.030-4.628-14.4-16.51-9.772-26.54 3.376-7.314 10.614-11.622 18.174-11.622 2.806 0 5.658 0.594 8.372 1.846 10.030 4.628 14.408 16.512 9.778 26.542-4.628 10.030-16.516 14.408-26.54 9.78zM439.341 497.152c-9.19 6.126-21.606 3.644-27.736-5.546l-0.006-0.012c-6.128-9.19-3.64-21.602 5.55-27.728 3.408-2.274 7.26-3.36 11.072-3.36 6.466 0 12.812 3.128 16.666 8.912 6.13 9.188 3.646 21.606-5.546 27.734zM429.491 410.512c0 11.044-8.954 20-20 20s-20-8.956-20-20v-0.014c0-11.044 8.954-19.994 20-19.994s20 8.964 20 20.008zM410.367 331.557c3.504-7.006 10.562-11.054 17.896-11.054 3.006 0 6.060 0.682 8.932 2.12 9.88 4.94 13.88 16.958 8.942 26.838-4.94 9.878-16.952 13.884-26.834 8.946-9.88-4.94-13.884-16.954-8.944-26.834zM489.972 306.307c-9.41 5.79-21.726 2.858-27.516-6.55s-2.856-21.726 6.55-27.516l0.012-0.008c3.268-2.012 6.884-2.968 10.458-2.968 6.714 0 13.274 3.384 17.052 9.524 5.79 9.406 2.85 21.728-6.556 27.518zM549.502 250.518c11.046 0 19.994 8.956 19.994 20s-8.962 20-20.008 20-20-8.956-20-20 8.954-20 20-20zM629.967 272.241l0.012 0.008c9.408 5.79 12.334 18.104 6.544 27.512-5.79 9.406-18.112 12.334-27.522 6.546-9.408-5.79-12.34-18.108-6.55-27.516 3.778-6.138 10.336-9.52 17.052-9.52 3.576 0 7.196 0.958 10.464 2.97zM680.809 357.797c-9.54 5.562-21.79 2.338-27.356-7.204s-2.342-21.79 7.198-27.354c3.168-1.85 6.636-2.728 10.058-2.728 6.88 0 13.578 3.554 17.294 9.926l0.006 0.012c5.566 9.542 2.34 21.784-7.2 27.348zM709.482 410.512v0.016c0 11.044-8.954 19.992-20 19.992s-20-8.962-20-20.008 8.954-20 20-20 20 8.956 20 20zM687.361 491.618c-6.126 9.19-18.538 11.672-27.732 5.542-9.19-6.126-11.67-18.55-5.544-27.74 3.854-5.782 10.196-8.908 16.66-8.908 3.812 0 7.666 1.088 11.076 3.362 9.19 6.126 11.674 18.544 5.546 27.734zM619.465 511.75c6.714 0 13.274 3.38 17.052 9.52 5.79 9.408 2.856 21.726-6.55 27.516l-0.012 0.008c-9.406 5.79-21.72 2.852-27.51-6.554-5.79-9.408-2.85-21.73 6.558-27.52 3.268-2.012 6.886-2.97 10.462-2.97zM469.488 410.512c0-44.112 35.888-79.999 79.999-79.999s79.999 35.888 79.999 79.999c0 44.114-35.888 80.001-79.999 80.001s-79.999-35.888-79.999-80.001zM549.488 450.514c22.056 0 40-17.946 40-40.002s-17.944-40-40-40-40 17.944-40 40 17.944 40.002 40 40.002zM520.86 698.184c3.15-1.818 6.588-2.684 9.982-2.684 6.912 0 13.634 3.588 17.338 10.004l37.256 64.529c5.524 9.566 2.246 21.796-7.32 27.32-9.562 5.52-21.796 2.246-27.32-7.32l-37.256-64.529c-5.524-9.566-2.248-21.796 7.32-27.32zM244.476 371.883c6.912 0 13.634 3.588 17.338 10.004 5.524 9.566 2.246 21.796-7.32 27.32l-64.529 37.256c-9.562 5.522-21.796 2.244-27.32-7.32-5.524-9.566-2.246-21.796 7.32-27.32l64.529-37.256c3.15-1.818 6.59-2.684 9.982-2.684zM294.67 261.885h-74.511c-11.046 0-20-8.956-20-20s8.954-20 20-20h74.511c11.046 0 20 8.956 20 20s-8.954 20-20 20zM403.125 154.39l-64.529-37.256c-9.566-5.522-12.844-17.754-7.32-27.32 3.704-6.416 10.426-10.004 17.338-10.004 3.392 0 6.832 0.866 9.982 2.684l64.529 37.256c9.566 5.522 12.844 17.754 7.32 27.32s-17.756 12.844-27.32 7.32zM578.115 122.841c-9.562 5.52-21.796 2.244-27.32-7.32l-37.256-64.529c-5.524-9.566-2.246-21.796 7.32-27.32 3.15-1.818 6.588-2.684 9.982-2.684 6.912 0 13.634 3.588 17.338 10.004l37.256 64.529c5.522 9.566 2.246 21.798-7.32 27.32zM718.114 175.696c-11.046 0-20-8.956-20-20v-74.511c0-11.044 8.954-20 20-20s20 8.956 20 20v74.511c0 11.046-8.954 20-20 20zM840.251 284.149c-5.524 9.564-17.754 12.846-27.32 7.32-9.566-5.524-12.844-17.754-7.32-27.32l37.256-64.529c3.704-6.416 10.426-10.004 17.338-10.004 3.392 0 6.832 0.866 9.982 2.684 9.566 5.524 12.844 17.754 7.32 27.32zM929.007 409.206l-64.529 37.254c-9.568 5.52-21.798 2.246-27.322-7.32-5.522-9.566-2.244-21.798 7.322-27.32l64.529-37.254c3.15-1.818 6.588-2.684 9.982-2.684 6.912 0 13.636 3.588 17.34 10.004 5.522 9.566 2.244 21.798-7.322 27.32zM878.815 559.141c11.046 0 20 8.956 20 20s-8.954 20-20 20h-74.511c-11.046 0-20-8.956-20-20s8.954-20 20-20zM685.869 663.954c3.392 0 6.832 0.866 9.982 2.684l64.529 37.256c9.566 5.522 12.844 17.754 7.32 27.32s-17.756 12.844-27.32 7.32l-64.529-37.256c-9.566-5.522-12.844-17.754-7.32-27.32 3.704-6.416 10.426-10.004 17.338-10.004zM549.502 170.516c11.046 0 20 8.956 20 20s-8.954 20-20 20h-0.014c-11.046 0-19.992-8.956-19.992-20s8.96-20 20.006-20z" />
<glyph unicode="&#xe90c;" glyph-name="drug" d="M287.922 273.969h52v-52c0-11.039 8.953-20 20-20h80c11.039 0 20 8.961 20 20v52h52c11.039 0 20 8.961 20 20v80c0 11.047-8.961 20-20 20h-52v52c0 11.047-8.961 20-20 20h-80c-11.047 0-20-8.953-20-20v-52h-52c-11.047 0-20-8.953-20-20v-80c0-11.039 8.953-20 20-20zM307.922 353.969h52c11.039 0 20 8.961 20 20v52h40v-52c0-11.039 8.953-20 20-20h52v-40h-52c-11.047 0-20-8.953-20-20v-52h-40v52c0 11.047-8.961 20-20 20h-52zM802.398 274.391l-138.398-138.398v470.82c0 39.969-23.289 76.93-59.469 94.242-22.242 10.633-36.609 33.438-36.609 58.086v5.055c17.594 7.727 29.914 25.313 29.914 45.727v100.156c0 27.531-22.391 49.922-49.914 49.922h-432.172c-27.523 0-49.914-22.391-49.914-49.922v-100.156c0-20.414 12.32-38 29.914-45.727v-5.133c0-24.617-14.344-47.398-36.531-58.055-35.977-17.266-59.219-54.211-59.219-94.117v-570.891c0-55.141 44.859-100 100-100h464c35.375 0 66.492 18.477 84.281 46.281 2.367-2.93 4.914-5.766 7.633-8.484l0.008-0.008c21.242-21.242 49.141-31.859 77.047-31.859s55.82 10.625 77.063 31.867l73.227 73.227s0.008 0.008 0.016 0.016c0.008 0.008 0.016 0.016 0.016 0.016l73.227 73.227c42.492 42.484 42.492 111.625 0 154.117-42.484 42.484-111.625 42.484-154.117-0.008zM105.836 910.078c0 5.469 4.445 9.922 9.914 9.922h432.172c5.461 0 9.914-4.453 9.914-9.922v-100.156c0-5.469-4.453-9.922-9.914-9.922h-432.172c-5.469 0-9.914 4.453-9.914 9.922zM564-24h-464c-33.086 0-60 26.914-60 60v570.891c0 24.617 14.344 47.406 36.531 58.055 35.977 17.273 59.219 54.211 59.219 94.117v0.938h392.172v-0.859c0-39.961 23.289-76.93 59.469-94.234 17.578-8.406 30.203-24.422 34.742-42.938h-466.133c-11.047 0-20-8.953-20-20v-188c0-11.039 8.953-20 20-20s20 8.961 20 20v168h448v-496h-448v168c0 11.047-8.953 20-20 20s-20-8.953-20-20v-188c0-11.039 8.953-20 20-20h468v-9.969c0-33.086-26.914-60-60-60zM781.75 2.078c-26.898-26.891-70.656-26.891-97.547 0-26.898 26.891-26.898 70.656 0 97.547l59.102 59.102 97.539-97.547zM928.234 148.562l-59.102-59.094-97.539 97.539 59.094 59.102c26.891 26.898 70.656 26.898 97.547 0.008 26.891-26.898 26.891-70.656 0-97.555zM990.125 625.453c-21.852 21.852-50.898 33.883-81.789 33.883-30.898 0-59.945-12.039-81.789-33.883-21.852-21.844-33.883-50.891-33.883-81.789 0-30.891 12.039-59.938 33.883-81.789 22.547-22.547 52.164-33.82 81.781-33.82 29.625 0 59.242 11.273 81.797 33.82 45.094 45.102 45.094 118.484 0 163.578zM961.836 597.172c24.609-24.609 28.672-62.078 12.234-90.953l-103.203 103.203c11.289 6.453 24.109 9.914 37.469 9.914 20.211 0 39.211-7.875 53.5-22.164zM854.828 490.164c-14.289 14.289-22.164 33.289-22.164 53.5 0 13.359 3.461 26.18 9.914 37.469l103.203-103.203c-28.875-16.438-66.344-12.375-90.953 12.234zM156 313.977c5.258 0 10.422 2.125 14.141 5.867 3.719 3.719 5.859 8.859 5.859 14.133 0 5.266-2.141 10.422-5.859 14.141s-8.883 5.859-14.141 5.859-10.422-2.133-14.141-5.859c-3.719-3.719-5.859-8.875-5.859-14.141 0-5.273 2.141-10.438 5.859-14.133 3.719-3.742 8.883-5.867 14.141-5.867zM181 824c11.047 0 20 8.953 20 20v32c0 11.047-8.953 20-20 20s-20-8.953-20-20v-32c0-11.047 8.953-20 20-20zM285 824c11.047 0 20 8.953 20 20v32c0 11.047-8.953 20-20 20s-20-8.953-20-20v-32c0-11.047 8.953-20 20-20zM389 824c11.047 0 20 8.953 20 20v32c0 11.047-8.953 20-20 20s-20-8.953-20-20v-32c0-11.047 8.953-20 20-20zM493 824c11.047 0 20 8.953 20 20v32c0 11.047-8.953 20-20 20s-20-8.953-20-20v-32c0-11.047 8.953-20 20-20z" />
<glyph unicode="&#xe90d;" glyph-name="graphic-tablet" d="M346.001 327.558c-11.040 0-20-8.94-20-20 0-11.040 8.96-20 20-20s20 8.96 20 20c0 11.060-8.96 20-20 20zM963.998 713.997h-44.58l75.272 75.29c18.898 18.876 29.306 43.988 29.306 70.71s-10.408 51.836-29.292 70.698c-18.886 18.898-43.996 29.306-70.706 29.306s-51.82-10.408-70.698-29.298l-28.294-28.274c-0.004-0.004-0.006-0.006-0.010-0.010l-188.423-188.421h-576.572c-33.084 0-60-26.916-60-60v-657.997c0-33.084 26.916-60 60-60h903.996c33.084 0 60 26.916 60 60v657.997c0 33.084-26.916 60-60 60zM881.587 902.418c11.33 11.338 26.392 17.582 42.412 17.582s31.082-6.244 42.428-17.596c11.332-11.318 17.572-26.378 17.572-42.408s-6.24-31.090-17.586-42.422l-14.138-14.15-42.212 42.212c-0.070 0.072-0.13 0.152-0.202 0.224l-42.428 42.414 14.154 14.144zM839.139 859.99l84.854-84.854-292.103-292.087c-13.19 39.994-44.844 71.646-84.838 84.838l292.087 292.103zM491.33 568.728c-0.518-0.518-1-1.072-1.46-1.644-0.136-0.17-0.26-0.346-0.388-0.52-0.314-0.418-0.614-0.846-0.896-1.288-0.124-0.196-0.242-0.394-0.36-0.592-0.272-0.464-0.524-0.94-0.76-1.426-0.084-0.176-0.174-0.348-0.254-0.526-0.272-0.61-0.518-1.234-0.73-1.876-0.016-0.050-0.042-0.098-0.058-0.148l-0.024-0.078c-0.018-0.060-0.040-0.118-0.058-0.178l-56.498-175.443c-2.346-7.284-0.33-15.268 5.194-20.566 3.79-3.634 8.772-5.566 13.848-5.566 2.32 0 4.662 0.404 6.916 1.236l169.699 62.58c0.104 0.038 0.2 0.092 0.304 0.13 0.438 0.17 0.868 0.358 1.29 0.558 0.208 0.098 0.418 0.194 0.622 0.3 0.416 0.214 0.818 0.448 1.216 0.688 0.196 0.118 0.394 0.23 0.586 0.356 0.406 0.266 0.794 0.554 1.18 0.848 0.164 0.126 0.334 0.24 0.494 0.37 0.524 0.428 1.030 0.876 1.51 1.354 0.006 0.006 0.014 0.012 0.020 0.018l166.693 166.683h104.586v-531.998h-617.998v531.998h230.593l-25.268-25.27zM519.684 533.492c40.196-6.186 71.988-38.176 77.898-78.462l-117.066-43.17 39.168 121.632zM983.998-4c0-11.028-8.972-20-20-20h-903.996c-11.028 0-20 8.972-20 20v657.997c0 11.028 8.972 20 20 20h536.578l-39.994-40h-290.585c-11.044 0-20-8.954-20-20v-571.998c0-11.046 8.956-20 20-20h657.997c11.044 0 20 8.954 20 20v571.998c0 11.046-8.956 20-20 20h-84.584l40.002 40h84.582c11.028 0 20-8.972 20-20v-657.997zM186.001 593.997h-80c-11.044 0-20-8.954-20-20s8.956-20 20-20h80c11.044 0 20 8.954 20 20s-8.954 20-20 20zM186.001 513.998h-80c-11.044 0-20-8.954-20-20s8.956-20 20-20h80c11.044 0 20 8.954 20 20s-8.954 20-20 20zM186.001 187.999h-80c-11.044 0-20-8.954-20-20s8.956-20 20-20h80c11.044 0 20 8.954 20 20s-8.954 20-20 20zM186.001 107.999h-80c-11.044 0-20-8.954-20-20s8.956-20 20-20h80c11.044 0 20 8.954 20 20s-8.954 20-20 20zM146.001 387.998c-33.084 0-60-26.916-60-60s26.916-60 60-60c33.084 0 60 26.916 60 60s-26.916 60-60 60zM146.001 307.999c-11.028 0-20 8.972-20 20s8.972 20 20 20c11.028 0 20-8.972 20-20s-8.972-20-20-20zM858.773 281.251c-7.442 8.162-20.094 8.744-28.254 1.3-28.696-26.168-70.352-26.168-99.046 0-43.95 40.080-103.004 40.078-146.953 0-28.696-26.17-64.352-26.168-93.054 0.006-14.64 13.338-30.956 22.384-48.494 26.888-10.708 2.75-21.596-3.694-24.342-14.394-2.748-10.698 3.7-21.598 14.396-24.346 11.146-2.862 21.746-8.82 31.498-17.706 21.976-20.042 47.722-30.062 73.476-30.060 25.748 0.002 51.506 10.022 73.476 30.058 28.698 26.17 64.354 26.168 93.046 0 21.268-19.396 48.428-30.078 76.476-30.078s55.208 10.682 76.476 30.078c8.162 7.442 8.744 20.092 1.3 28.254z" />
<glyph unicode="&#xe90e;" glyph-name="calling" d="M812.138 606.897c0-39.003-31.618-70.621-70.621-70.621s-70.621 31.618-70.621 70.621c0 39.003 31.618 70.621 70.621 70.621s70.621-31.618 70.621-70.621zM1024 606.897c0-39.003-31.618-70.621-70.621-70.621s-70.621 31.618-70.621 70.621c0 39.003 31.618 70.621 70.621 70.621s70.621-31.618 70.621-70.621zM600.276 606.897c0-39.003-31.618-70.621-70.621-70.621s-70.621 31.618-70.621 70.621c0 39.003 31.618 70.621 70.621 70.621s70.621-31.618 70.621-70.621zM424.024 360.024c-97.739 97.739-119.808 195.478-124.787 234.637-1.391 10.828 2.335 21.686 10.081 29.378l79.095 79.060c11.635 11.628 13.7 29.749 4.979 43.697l-125.934 195.549c-9.648 15.444-29.459 21.018-45.745 12.871l-202.169-95.214c-13.17-6.485-20.916-20.477-19.421-35.081 10.593-100.634 54.466-348.019 297.578-591.148s490.461-286.985 591.148-297.578c14.603-1.495 28.596 6.251 35.081 19.421l95.214 202.169c8.117 16.251 2.58 36.008-12.8 45.674l-195.549 125.899c-13.939 8.73-32.060 6.68-43.697-4.943l-79.060-79.095c-7.692-7.746-18.551-11.472-29.378-10.081-39.159 4.979-136.898 27.048-234.637 124.787z" />
<glyph unicode="&#xe90f;" glyph-name="mail" d="M40.524 863.602l471.477-377.181 471.475 377.181zM530.741 424.577c-5.478-4.382-12.11-6.574-18.74-6.574s-13.262 2.192-18.74 6.574l-493.261 394.607v-756.785c0-16.568 13.432-30 30-30h964c16.568 0 30 13.432 30 30v756.785l-493.259-394.607z" />
<glyph unicode="&#xe910;" glyph-name="calculator" d="M784 476.324v483.676h-784v-962h582.586c46.656-38.72 106.386-62 171.414-62 148.878 0 270 122.018 270 272 0 138.738-105.188 253.352-240 268.324zM528.884 58h-468.884v842h664v-423.676c-52.476-5.828-100.456-26.752-139.496-58.324h-100.504v-60h45.612c-28.794-42.932-45.612-94.536-45.612-150 0-55.398 16.54-106.972 44.884-150zM754 118c-16.542 0-30 13.458-30 30h-60c0-39.11 25.082-72.456 60-84.84v-64.988c-101.632 14.742-180 103.214-180 209.828 0 105.61 78.368 193.246 180 207.848v-63.008c-34.918-12.384-60-45.73-60-84.84 0-49.626 40.374-90 90-90 16.542 0 30-13.458 30-30s-13.458-30-30-30zM784-1.828v64.988c34.918 12.384 60 45.73 60 84.84 0 49.626-40.374 90-90 90-16.542 0-30 13.458-30 30s13.458 30 30 30 30-13.458 30-30h60c0 39.11-25.082 72.456-60 84.84v63.008c101.632-14.602 180-102.238 180-207.848 0-106.614-78.368-195.086-180-209.828zM120 838v-360h544v360h-544zM604 538h-424v240h424v-240zM120 418h122v-60h-122v60zM302 418h120v-60h-120v60zM120 298h122v-60h-122v60zM302 298h120v-60h-120v60zM120 178h122v-60h-122v60zM302 178h120v-60h-120v60zM242 658h120v-60h-120v60z" />
<glyph unicode="&#xe911;" glyph-name="clock" d="M481.996 840.032h60.008v-119.464h-60.008zM700.539 619.355l-43.328 41.518-175.215-182.868v-160.021h60.008v135.924zM784.568 478.004h119.464v-60.008h-119.464zM481.996 175.434h60.008v-119.464h-60.008zM119.97 478.004h119.464v-60.008h-119.464zM874.038 810.038c-96.703 96.705-225.278 149.962-362.038 149.962s-265.335-53.257-362.038-149.962-149.962-225.278-149.962-362.038 53.257-265.333 149.962-362.038 225.278-149.962 362.038-149.962 265.335 53.257 362.038 149.962c96.705 96.705 149.962 225.278 149.962 362.038s-53.257 265.335-149.962 362.038zM831.606 128.394c-85.369-85.369-198.874-132.386-319.606-132.386-120.73 0-234.237 47.016-319.606 132.386-85.371 85.371-132.386 198.876-132.386 319.606s47.014 234.237 132.386 319.606c85.369 85.369 198.874 132.386 319.606 132.386s234.237-47.016 319.606-132.386c85.369-85.371 132.386-198.876 132.386-319.606s-47.016-234.235-132.386-319.606zM650.932 751.397l29.764 52.147 52.147-29.764-29.764-52.147zM786.138 257.329l29.764 52.147 52.147-29.764-29.764-52.147zM292.067 122.123l29.764 52.147 52.147-29.764-29.764-52.147zM156.862 616.194l29.764 52.147 52.147-29.764-29.764-52.147zM788.263 635.241l52.507 29.104 29.104-52.507-52.507-29.104zM647.056 142.942l52.507 29.104 29.104-52.507-52.507-29.104zM154.76 284.151l52.507 29.104 29.104-52.507-52.507-29.104zM295.969 776.446l52.507 29.104 29.104-52.507-52.507-29.104z" />
<glyph unicode="&#xe912;" glyph-name="snowfall" d="M85.333 362.581c-22.656 0-44.075 8.917-60.288 25.131s-25.173 37.632-25.173 60.331 8.96 44.117 25.173 60.331l426.667 426.667c33.237 33.237 87.339 33.237 120.576 0l426.667-426.667c16.213-16.213 25.173-37.632 25.173-60.331s-8.96-44.117-25.173-60.331c-31.829-31.787-88.747-31.787-120.576 0l-366.379 366.336v-156.715c0-35.285-28.715-64-64-64s-64 28.715-64 64v28.715l-42.667-42.667v-156.715c0-35.285-28.715-64-64-64s-64 28.715-64 64v28.715l-67.712-67.669c-16.213-16.213-37.632-25.131-60.288-25.131zM512 917.461c-10.837 0-21.675-4.224-30.123-12.672l-426.667-426.667c-8.149-8.107-12.672-18.816-12.672-30.123s4.48-22.016 12.672-30.165c16.896-16.896 43.349-16.896 60.245 0l104.107 104.107c6.144 6.101 15.317 7.979 23.253 4.608 7.979-3.243 13.184-11.051 13.184-19.669v-80.213c0-11.776 9.6-21.333 21.333-21.333s21.333 9.557 21.333 21.333v165.547c0 5.675 2.261 11.093 6.229 15.104l85.333 85.333c6.144 6.101 15.36 7.936 23.253 4.608 7.979-3.285 13.184-11.093 13.184-19.712v-80.213c0-11.776 9.6-21.333 21.333-21.333s21.333 9.557 21.333 21.333v165.547c0 5.675 2.261 11.093 6.229 15.104l21.333 21.333c8.32 8.32 21.845 8.32 30.165 0l381.44-381.44c15.915-15.915 44.331-15.915 60.245 0 8.149 8.149 12.672 18.859 12.672 30.165 0 11.264-4.48 21.973-12.672 30.123l-426.667 426.667c-8.405 8.405-19.243 12.629-30.080 12.629zM810.667-64h-597.333c-47.061 0-85.333 38.272-85.333 85.333v400.213c0 11.776 9.557 21.333 21.333 21.333s21.333-9.557 21.333-21.333v-400.213c0-23.509 19.115-42.667 42.667-42.667h597.333c23.552 0 42.667 19.157 42.667 42.667v400.213c0 11.776 9.557 21.333 21.333 21.333s21.333-9.557 21.333-21.333v-400.213c0-47.061-38.272-85.333-85.333-85.333zM874.667 581.12c-11.776 0-21.333 9.557-21.333 21.333v272.213h-128v-101.547c0-11.776-9.557-21.333-21.333-21.333s-21.333 9.557-21.333 21.333v122.88c0 11.776 9.557 21.333 21.333 21.333h170.667c11.776 0 21.333-9.557 21.333-21.333v-293.547c0-11.776-9.557-21.333-21.333-21.333zM618.667-64c-11.776 0-21.333 9.557-21.333 21.333v320h-170.667v-320c0-11.776-9.557-21.333-21.333-21.333s-21.333 9.557-21.333 21.333v341.333c0 11.776 9.557 21.333 21.333 21.333h213.333c11.776 0 21.333-9.557 21.333-21.333v-341.333c0-11.776-9.557-21.333-21.333-21.333z" />
<glyph unicode="&#xe913;" glyph-name="store" d="M988 761l-207 171.8c-3.2 3-8.4 4.2-12.6 4.2h-515c-4.2 0-8.2-1-12.6-4.2l-204.2-171.6c-8.6-7-14.6-15-14.6-26.2v-776h509.8v262.2c0 62.4 52 112.4 118.6 112.4 64.6 0 118.6-50 118.6-112.4v-262.2h233v779.4c0 9.8-6.6 16-14 22.6zM772.6 658.2c0-39.6-33.4-72.8-73-72.8s-73 33.2-73 72.8v62.4h146v-62.4zM585 658.2c0-39.6-33.4-72.8-73-72.8s-73 33.2-73 72.8v62.4h146v-62.4zM397.4 658.2c0-39.6-33.4-72.8-73-72.8s-73 33.2-73 72.8v62.4h146v-62.4zM209.6 658.2c0-39.6-33.4-72.8-73-72.8s-73 33.2-73 72.8v62.4h146v-62.4zM545.4 895.4l32.8-133.2h-132.8l31.4 133.2h68.6zM655.8 895.4l96.4-133.2h-130.2l-19.8 80-12.8 53.2h66.4zM401.2 762.2h-129.6l96.4 133.2h64.6l-31.4-133.2zM814.4 720.6h146v-62.4c0-39.6-33.4-72.8-73-72.8s-73 33.2-73 72.8v62.4zM922.4 762.2h-118.8l-96.4 133.2h55.2l160-133.2zM261.8 895.4h55.2l-95.8-133.2h-119.6l160.2 133.2zM810.6 0.6v220.6c0 85.4-72.8 154-160.2 154-89.4 0-160.2-68.6-160.2-154v-222.6h-426.6v572c20-16.6 45.4-26.8 73-26.8 38.4 0 73 19.6 93.8 49.4 20.8-29.6 55.4-49.4 93.8-49.4s73 19.6 93.8 49.4c20.8-29.6 55.4-49.4 93.8-49.4s73 19.6 93.8 49.4c20.8-29.6 55.4-49.4 93.8-49.4s73 19.6 93.8 49.4c20.8-29.6 55.4-49.4 93.8-49.4 27.6 0 53.2 10.2 73 26.8v-569.8h-149.4z" />
<glyph unicode="&#xe914;" glyph-name="arrow-pointing-left" d="M210.45 429.851l596.621-487.331c14.838-11.902 21.6-7.057 15.096 10.816l-158.381 465.693c-6.501 17.874-6.44 46.84 0.136 64.689l158.109 458.908c6.576 17.847-0.181 22.747-15.098 10.942l-596.347-480.787c-14.915-11.803-14.976-31.025-0.136-42.929z" />
<glyph unicode="&#xe915;" glyph-name="roof" d="M872 960c-78.774 0-139.792-67.13-142.35-69.988-0.020-0.024-0.038-0.050-0.060-0.074-3.766-4.224-6.598-10.208-7.352-16.166-1.936-15.162-11.722-33.772-30.238-33.772-18.224 0-27.868 17.652-30.272 34.024l0.034-0.25-0.028-0.004c-0.762 6.010-3.304 11.686-7.384 16.244-2.558 2.856-63.576 69.986-142.35 69.986s-139.792-67.13-142.35-69.988c-0.026-0.028-0.046-0.058-0.072-0.086-3.816-4.294-6.596-10.264-7.34-16.154-1.936-15.162-11.722-33.772-30.238-33.772-18.224 0-27.868 17.652-30.272 34.024l0.034-0.25-0.028-0.004c-0.762 6.010-3.304 11.686-7.384 16.244-2.558 2.856-63.576 69.986-142.35 69.986-78.452 0-141.342-66.744-143.982-69.584-5.152-5.548-8.018-12.842-8.018-20.416v-844c0-12.304 7.542-23.33 18.984-27.86 11.436-4.53 24.516-1.584 32.94 7.382 0.474 0.506 48.022 50.478 100.076 50.478 41.332 0 78.708-31.662 92.284-44.63 7.498-30.85 32.31-75.37 87.716-75.37s80.218 44.52 87.716 75.37c13.572 12.966 50.946 44.63 92.284 44.63 41.332 0 78.708-31.662 92.284-44.63 7.498-30.85 32.31-75.37 87.716-75.37s80.218 44.52 87.716 75.37c13.572 12.966 50.946 44.63 92.284 44.63 52.198 0 99.69-48.092 100.422-48.84 8.482-8.784 21.448-11.55 32.782-6.99 11.356 4.572 18.796 15.586 18.796 27.83v842c0 7.574-2.866 14.868-8.018 20.416-2.64 2.84-65.53 69.584-143.982 69.584zM872 900c39.426 0 76.264-28.666 92-42.766v-347.662c-24.878 15.038-56.868 28.428-92 28.428-34.566 0-65.71-12.928-90-27.676v347.194c15.166 14.010 50.814 42.482 90 42.482zM692 780c11.224 0 21.176 1.85 30 5.022v-334.524c-3.49-17.202-12.428-32.498-30-32.498-17.66 0-26.606 15.536-30 32.534v334.488c8.824-3.172 18.776-5.022 30-5.022zM512 900c39.208 0 74.876-28.506 90-42.478v-347.2c-24.29 14.75-55.434 27.678-90 27.678s-65.71-12.928-90-27.676v347.194c15.166 14.010 50.814 42.482 90 42.482zM332 780c11.224 0 21.176 1.85 30 5.022v-334.524c-3.49-17.202-12.428-32.498-30-32.498-17.66 0-26.606 15.536-30 32.534v334.488c8.824-3.172 18.776-5.022 30-5.022zM152 900c39.208 0 74.876-28.506 90-42.478v-347.2c-24.29 14.75-55.434 27.678-90 27.678-35.134 0-67.122-13.39-92-28.428v347.656c15.776 14.138 52.596 42.772 92 42.772zM152 116c-35.124 0-67.126-13.376-92-28.41v347.608c15.77 14.086 52.74 42.802 92 42.802 39.204 0 74.846-28.484 90-42.486v-347.186c-24.29 14.748-55.436 27.672-90 27.672zM332-4c-17.66 0-26.606 15.536-30 32.534v334.488c8.824-3.172 18.776-5.022 30-5.022s21.176 1.85 30 5.022v-334.524c-3.49-17.202-12.428-32.498-30-32.498zM512 116c-34.564 0-65.71-12.924-90-27.672v347.164c15.15 13.954 50.932 42.508 90 42.508 39.204 0 74.846-28.484 90-42.486v-347.186c-24.29 14.748-55.436 27.672-90 27.672zM692-4c-17.66 0-26.606 15.536-30 32.534v334.488c8.824-3.172 18.776-5.022 30-5.022s21.176 1.85 30 5.022v-334.524c-3.49-17.202-12.428-32.498-30-32.498zM872 116c-34.564 0-65.71-12.924-90-27.672v347.164c15.15 13.954 50.932 42.508 90 42.508 39.422 0 76.238-28.646 92-42.776v-346.824c-24.86 14.584-56.886 27.6-92 27.6z" />
<glyph unicode="&#xe916;" glyph-name="roof-1" d="M992 960h-960c-16.57 0-30-13.43-30-30v-964c0-16.57 13.43-30 30-30 49.016 0 92.609 23.633 120 60.102 27.391-36.469 70.984-60.102 120-60.102s92.609 23.633 120 60.102c27.391-36.469 70.984-60.102 120-60.102s92.609 23.633 120 60.102c27.391-36.469 70.984-60.102 120-60.102s92.609 23.633 120 60.102c27.391-36.469 70.984-60.102 120-60.102 16.57 0 30 13.43 30 30v964c0 16.57-13.43 30-30 30zM872 202c-49.625 0-90 40.375-90 90v59.016c36.578 7.453 68.352 28.266 90 57.086 21.648-28.82 53.422-49.633 90-57.086v-59.016c0-49.625-40.375-90-90-90zM632 202c-49.625 0-90 40.375-90 90v59.016c36.578 7.453 68.352 28.266 90 57.086 21.648-28.82 53.422-49.633 90-57.086v-59.016c0-49.625-40.375-90-90-90zM392 202c-49.625 0-90 40.375-90 90v59.016c36.578 7.453 68.352 28.266 90 57.086 21.648-28.82 53.422-49.633 90-57.086v-59.016c0-49.625-40.375-90-90-90zM152 202c-49.625 0-90 40.375-90 90v59.016c36.578 7.453 68.352 28.266 90 57.086 21.648-28.82 53.422-49.633 90-57.086v-59.016c0-49.625-40.375-90-90-90zM482 780v-76c0-49.625-40.375-90-90-90s-90 40.375-90 90v76zM722 780v-76c0-49.625-40.375-90-90-90s-90 40.375-90 90v76zM962 780v-76c0-49.625-40.375-90-90-90s-90 40.375-90 90v76zM752 408c-49.625 0-90 40.375-90 90v59.016c36.578 7.453 68.352 28.266 90 57.086 21.648-28.82 53.422-49.633 90-57.086v-59.016c0-49.625-40.375-90-90-90zM512 408c-49.625 0-90 40.375-90 90v59.016c36.578 7.453 68.352 28.266 90 57.086 21.648-28.82 53.422-49.633 90-57.086v-59.016c0-49.625-40.375-90-90-90zM272 408c-49.625 0-90 40.375-90 90v59.016c36.578 7.453 68.352 28.266 90 57.086 21.648-28.82 53.422-49.633 90-57.086v-59.016c0-49.625-40.375-90-90-90zM242 704c0-49.625-40.375-90-90-90s-90 40.375-90 90v76h180zM122 557.016v-59.016c0-39.109-25.078-72.477-60-84.859v170.938c17.453-13.125 37.844-22.547 60-27.063zM962 413.141c-34.922 12.383-60 45.75-60 84.859v59.016c22.156 4.516 42.547 13.938 60 27.063zM62 900h900v-60h-900zM62 1.141v170.938c17.453-13.125 37.844-22.547 60-27.063v-59.016c0-39.109-25.078-72.477-60-84.859zM272-4c-49.625 0-90 40.375-90 90v59.016c36.578 7.453 68.352 28.266 90 57.086 21.648-28.82 53.422-49.633 90-57.086v-59.016c0-49.625-40.375-90-90-90zM512-4c-49.625 0-90 40.375-90 90v59.016c36.578 7.453 68.352 28.266 90 57.086 21.648-28.82 53.422-49.633 90-57.086v-59.016c0-49.625-40.375-90-90-90zM752-4c-49.625 0-90 40.375-90 90v59.016c36.578 7.453 68.352 28.266 90 57.086 21.648-28.82 53.422-49.633 90-57.086v-59.016c0-49.625-40.375-90-90-90zM902 86v59.016c22.156 4.516 42.547 13.938 60 27.063v-170.938c-34.922 12.383-60 45.75-60 84.859z" />
<glyph unicode="&#xe917;" glyph-name="roof-2" d="M1023.832 960h-1023.664v-1024l151.84 74.675 120.071-60.034 119.961 59.98 119.961-59.98 119.961 59.98 119.961-59.98 120.071 60.034 151.84-74.675v1024zM60.148 623.6l91.856 45.161 90.084-45.041v-232.842l-89.857 44.929-92.084-45.271v233.064zM482.010 390.879l-89.97 44.985-89.97-44.985v232.842l89.97 44.985 89.97-44.985v-232.842zM541.99 623.72l89.97 44.985 89.97-44.985v-232.842l-89.97 44.985-89.97-44.985v232.842zM721.931 690.78l-89.97 44.985-89.97-44.985v209.239h179.941v-209.239zM482.010 690.78l-89.97 44.985-89.97-44.985v209.239h179.941v-209.239zM60.148 323.699l91.856 45.161 90.084-45.041v-157.016l-89.857 44.929-92.084-45.271v157.238zM302.069 323.819l89.97 44.985 89.97-44.985v-157.016l-89.97 44.985-89.97-44.985v157.016zM541.99 323.819l89.97 44.985 89.97-44.985v-157.016l-89.97 44.985-89.97-44.985v157.016zM781.911 323.819l90.084 45.041 91.856-45.161v-157.238l-92.084 45.271-89.857-44.929v157.016zM871.768 435.806l-89.857-44.929v232.844l90.084 45.041 91.856-45.161v-233.066l-92.084 45.271zM963.852 690.438l-92.084 45.271-89.857-44.929v209.239h181.94v-209.581zM242.089 900.020v-209.239l-89.857 44.929-92.084-45.271v209.581h181.94zM871.772 77.626l-119.851-59.926-119.961 59.98-119.961-59.98-119.961 59.98-119.961-59.98-119.851 59.926-92.080-45.285v67.282l91.856 45.161 120.075-60.036 119.961 59.98 119.961-59.98 119.961 59.98 119.961-59.98 120.075 60.036 91.856-45.161v-67.282l-92.080 45.285z" />
<glyph unicode="&#xe918;" glyph-name="roof-3" d="M752 840c0-33.086-26.914-60-60-60s-60 26.914-60 60c0 66.172-53.828 120-120 120s-120-53.828-120-120c0-33.086-26.914-60-60-60s-60 26.914-60 60c0 66.172-53.828 120-120 120s-120-53.828-120-120v-784h60c0 33.086 26.914 60 60 60s60-26.914 60-60c0-66.172 53.828-120 120-120s120 53.828 120 120c0 33.086 26.914 60 60 60s60-26.914 60-60c0-66.172 53.828-120 120-120s120 53.828 120 120c0 33.086 26.914 60 60 60s60-26.914 60-60h60v784c0 66.172-53.828 120-120 120s-120-53.828-120-120zM212 159.859c-17.664 10.242-38.148 16.141-60 16.141-21.844 0-42.344-5.867-60-16.102v680.102c0 33.086 26.914 60 60 60s60-26.914 60-60zM392 56c0-33.086-26.914-60-60-60s-60 26.914-60 60v680.141c17.664-10.242 38.148-16.141 60-16.141s42.336 5.898 60 16.141zM572 159.859c-17.664 10.242-38.148 16.141-60 16.141s-42.336-5.898-60-16.141v680.141c0 33.086 26.914 60 60 60s60-26.914 60-60zM752 56c0-33.086-26.914-60-60-60s-60 26.914-60 60v680.141c17.664-10.242 38.148-16.141 60-16.141s42.336 5.898 60 16.141zM932 840v-680.102c-17.656 10.234-38.156 16.102-60 16.102-21.852 0-42.336-5.898-60-16.141v680.141c0 33.086 26.914 60 60 60s60-26.914 60-60z" />
<glyph unicode="&#xe919;" glyph-name="worker" d="M850.872 348.83l-163.456 43.858c21.846 33.118 34.584 72.752 34.584 115.312v37.106c34.318 12.1 60 45.020 60 84.894 0 40.232-26.184 73.664-61.556 85.406-8.72 71.434-53.766 133.876-119.016 164.608-4.998 44.928-43.188 79.986-89.428 79.986s-84.43-35.058-89.43-79.986c-65.248-30.732-110.294-93.174-119.016-164.608-35.338-11.732-61.554-45.142-61.554-85.406 0-39.348 25.194-72.622 60-84.894v-37.106c0-42.56 12.738-82.194 34.584-115.314l-163.456-43.858c-65.43-17.556-111.128-77.13-111.128-144.874v-237.954c0-16.568 13.432-30 30-30 11.438 0 835.458 0 840 0 16.568 0 30 13.432 30 30v237.954c0 67.746-45.698 127.32-111.128 144.876zM332 600c-16.58 0-30 13.416-30 30 0 16.582 13.416 30 30 30 16.568 0 30 13.432 30 30 0 47.976 22.966 92.156 60 120.006v-60.006c0-16.568 13.432-30 30-30s30 13.432 30 30v120c0 16.542 13.458 30 30 30s30-13.458 30-30v-120c0-16.568 13.432-30 30-30s30 13.432 30 30v60.006c37.034-27.85 60-72.030 60-120.006 0-16.568 13.432-30 30-30 16.58 0 30-13.416 30-30 0-16.582-13.416-30-30-30h-360zM512 358c-82.71 0-150 67.29-150 150v32h300v-32c0-82.71-67.29-150-150-150zM565.29 304.858l-16.714-66.858h-73.152l-16.714 66.858c17.024-4.468 34.882-6.858 53.29-6.858s36.266 2.39 53.29 6.858zM242-4h-120v207.954c0 40.646 27.418 76.392 66.676 86.926l53.324 14.306v-309.186zM368.576-4h-66.576v325.284l80.412 21.576c2.002-1.574 4.042-3.102 6.1-4.604l32.814-131.256-52.75-211zM430.424-4l45 180h73.152l45-180h-163.152zM722-4h-66.576l-52.75 211 32.814 131.256c2.060 1.502 4.098 3.030 6.1 4.604l80.412-21.576v-325.284zM902-4h-120v309.186l53.324-14.308c39.258-10.534 66.676-46.278 66.676-86.924v-207.954z" />
<glyph unicode="&#xe91a;" glyph-name="award" d="M638.398 319.47v4.156c99.5 13.453 178.359 92.82 191.023 192.554 109.578 13.914 194.578 107.726 194.578 221.054 0 123.031-99.531 222.765-222.765 222.765 0 0-578.46 0-578.468 0-123.039 0-222.765-99.531-222.765-222.796 0-113.297 85-207.109 194.578-221.023 12.664-99.734 91.531-179.101 191.023-192.554v-4.156c0-81.773 66.547-115.578 96.398-122.82v-72.117h-66.43c-87.398 0-158.5-71.101-158.5-158.531 0-16.57 13.43-30 30-30h449.866c16.562 0 30 13.461 30 30.031 0 87.398-71.109 158.5-158.508 158.5h-66.43v72.117c29.852 7.242 96.398 41.047 96.398 122.82zM702.273-3.998h-380.546c12.711 39.703 49.969 68.531 93.844 68.531h192.859c43.875 0 81.133-28.828 93.844-68.531zM963.999 737.204c0-79.523-57.32-145.859-132.797-159.984v320.007c105.836-19.594 132.797-116.094 132.797-160.023zM60.001 737.235c0 70.945 49.195 144.515 132.804 159.992v-320.007c-75.484 14.125-132.804 80.469-132.804 160.015zM252.805 544.399v355.601h518.397v-355.601c0-89.765-73.031-162.797-162.797-162.797h-192.804c-89.765 0-162.797 73.031-162.797 162.797zM445.602 319.47v2.133h132.797v-2.133c0-36.812-29.828-66.398-66.398-66.398-36.586-0.008-66.398 29.602-66.398 66.398zM477.734 769.336c0-16.57-13.43-30-30-30s-30 13.43-30 30c0 16.57 13.43 30 30 30s30-13.43 30-30zM351.336 719c-16.562 0-30-13.437-30-30 0-16.547 13.437-30 30-30s30 13.453 30 30c0 16.562-13.437 30-30 30zM672.664 719c-16.555 0-30-13.437-30-30 0-16.547 13.445-30 30-30 16.562 0 30 13.453 30 30 0 16.562-13.437 30-30 30zM606.265 769.336c0-16.57-13.43-30-30-30s-30 13.43-30 30c0 16.57 13.43 30 30 30s30-13.43 30-30zM512 702.938c-69.695 0-126.398-56.711-126.398-126.406 0-51.312 41.508-94.265 94.265-94.265h64.265c52.875 0 94.265 43.070 94.265 94.265 0 69.695-56.703 126.406-126.398 126.406zM544.133 542.266h-64.265c-19.172 0-34.266 15.633-34.266 34.266 0 36.617 29.789 66.398 66.398 66.398s66.398-29.789 66.398-66.398c0-18.641-15.094-34.266-34.266-34.266z" />
<glyph unicode="&#xe91b;" glyph-name="happy" d="M726.042 629.872c-11.712 11.722-30.708 11.728-42.426 0.018l-64.284-64.228c-11.72-11.71-11.728-30.706-0.018-42.426 11.712-11.722 30.708-11.728 42.426-0.018l43.060 43.022 43.062-43.024c11.72-11.71 30.714-11.704 42.426 0.018 11.71 11.72 11.702 30.716-0.018 42.426zM362.186 523.328c11.72-11.71 30.714-11.704 42.426 0.018 11.71 11.72 11.702 30.716-0.018 42.426l-64.23 64.21c-11.712 11.722-30.708 11.728-42.426 0.018l-64.284-64.228c-11.72-11.71-11.728-30.706-0.018-42.426 11.712-11.722 30.708-11.728 42.426-0.018l43.062 43.024zM704.8 960h-385.6c-176.008 0-319.2-143.192-319.2-319.2v-385.6c0-176.008 143.192-319.2 319.2-319.2h385.6c176.008 0 319.2 143.192 319.2 319.2v385.6c0 176.008-143.192 319.2-319.2 319.2zM964 255.2c0-142.924-116.276-259.2-259.2-259.2h-385.6c-142.924 0-259.2 116.276-259.2 259.2v385.6c0 142.924 116.276 259.2 259.2 259.2h385.6c142.924 0 259.2-116.276 259.2-259.2zM683.312 340.398c-47.272-47.13-109.292-70.692-171.312-70.69-62.020 0-124.040 23.56-171.312 70.692-11.642 11.788-30.636 11.908-42.426 0.266s-11.908-30.636-0.266-42.426c59.002-59.002 136.504-88.502 214.004-88.502s155.002 29.5 214.004 88.502c11.642 11.788 11.524 30.784-0.266 42.426-11.788 11.64-30.784 11.522-42.426-0.268z" />
<glyph unicode="&#xe91c;" glyph-name="protection" d="M898.049 784.127c-3.106 3.568-7.562 5.685-12.289 5.837-4.709 0.427-9.3-1.655-12.663-4.983l-72.566-72.583c-6.264-6.264-6.691-16.266-1.006-23.057 56.713-67.465 87.926-153.19 87.926-241.356s-31.234-173.874-87.926-241.356c-5.685-6.774-5.258-16.776 1.006-23.057l72.566-72.583c3.211-3.211 7.545-5.001 12.084-5.001 0.187 0 0.392 0 0.579 0.017 4.726 0.152 9.183 2.27 12.289 5.837 81.221 93.218 125.951 212.583 125.951 336.129s-44.712 242.937-125.951 336.155zM224.48 206.642c-56.713 67.465-87.926 153.19-87.926 241.356s31.234 173.874 87.926 241.356c5.685 6.774 5.258 16.776-1.006 23.057l-72.57 72.587c-3.346 3.328-7.972 5.275-12.663 4.983-4.726-0.152-9.183-2.27-12.289-5.837-81.217-93.218-125.951-212.583-125.951-336.129s44.734-242.911 125.951-336.129c3.106-3.568 7.562-5.685 12.289-5.837 0.187-0.017 0.392-0.017 0.579-0.017 4.522 0 8.856 1.79 12.084 5.001l72.57 72.587c6.26 6.247 6.704 16.249 1.006 23.023zM247.602 736.527c6.264-6.247 16.283-6.709 23.057-1.006 67.482 56.696 153.19 87.926 241.356 87.926s173.874-31.234 241.356-87.926c3.193-2.679 7.101-3.995 10.973-3.995 4.387 0 8.756 1.69 12.084 5.001l72.566 72.583c3.328 3.346 5.153 7.937 4.983 12.646-0.17 4.726-2.287 9.183-5.855 12.289-93.179 81.221-212.544 125.955-336.086 125.955s-242.911-44.734-336.112-125.951c-3.568-3.106-5.685-7.545-5.855-12.289-0.17-4.709 1.655-9.3 4.983-12.646zM776.415 159.469c-6.264 6.264-16.283 6.726-23.057 1.006-67.482-56.696-153.19-87.926-241.356-87.926s-173.874 31.234-241.356 87.926c-6.774 5.715-16.793 5.258-23.057-1.006l-72.57-72.583c-3.328-3.346-5.153-7.937-4.983-12.646 0.17-4.726 2.287-9.183 5.855-12.289 93.184-81.221 212.565-125.951 336.094-125.951s242.911 44.734 336.112 125.951c3.568 3.106 5.685 7.545 5.855 12.289 0.17 4.709-1.655 9.3-4.983 12.646zM526.473 730.127c-3.123 4.949-8.569 7.954-14.423 7.972-5.907-0.152-11.365-2.988-14.506-7.954-2.439-3.855-61.527-94.412-207.412-94.412-4.539 0-8.891-1.79-12.084-5.018-3.211-3.211-4.983-7.575-4.983-12.119l0.632-167.492c0-85.691 28.093-166.416 79.087-227.241 46.184-55.11 99.753-83.047 159.215-83.047s113.035 27.954 159.215 83.047c50.994 60.826 79.087 141.551 79.087 227.194l0.632 167.561c0.017 4.539-1.773 8.891-4.983 12.119-3.211 3.211-7.562 5.018-12.084 5.018-145.641-0.022-204.781 90.261-207.39 94.373zM628.823 507.103c-1.773-2.784-3.533-5.563-5.306-8.329-32.393-50.894-64.768-101.787-97.161-152.681-4.317-6.791-8.634-13.587-12.973-20.361-3.96-6.229-7.68-12.476-15.634-13.875-12.611-2.2-19.389 10.359-25.789 18.893-7.798 10.394-15.6 20.788-23.38 31.164-5.802 7.75-11.622 15.495-17.442 23.262-0.357 0.462-0.701 0.937-1.059 1.398-5.667 7.528-4.13 18.226 3.415 23.876 7.545 5.633 18.244 4.13 23.894-3.415l36.387-48.519 106.222 166.93c5.053 7.937 15.6 10.276 23.567 5.241 7.972-5.088 10.311-15.634 5.258-23.584z" />
<glyph unicode="&#xe91d;" glyph-name="quality" d="M981.024 658.322l-104.542 62.548-23.554 97.5c-10.458 43.242-50.508 72.070-94.424 68.614l-119.62-9.258-68.524 60.672c-33.75 28.798-82.852 28.798-116.718 0.030l-68.526-60.7-119.62 9.258c-43.418 3.046-83.994-25.4-93.34-65.068-1.934-6.012-36.868-114.602-34.6-107.548l-94.564-56.016c-37.88-23.262-53.056-69.96-36.094-111.036l40.81-98.906-40.78-98.878c-16.992-41.104-1.788-87.774 36.064-111.006l104.436-62.11 23.642-97.94c10.4-43.212 50.274-71.894 94.424-68.614l118.33 9.14 69.814-61.384c16.906-14.412 37.62-21.62 58.362-21.62 20.712 0 41.456 7.208 58.36 21.622l69.814 61.384 118.33-9.14c44.708-3.544 84.024 25.372 94.424 68.614l23.554 97.5 104.542 62.548c37.822 23.232 52.998 69.902 36.064 111.006l-40.81 98.876 40.84 98.936c16.934 41.044 1.758 87.744-36.094 110.976zM512 118c-181.962 0-330 148.038-330 330s148.038 330 330 330 330-148.038 330-330-148.038-330-330-330zM512 718c-148.886 0-270-121.114-270-270s121.114-270 270-270 270 121.114 270 270-121.114 270-270 270zM683.21 516.79l-180-180c-5.86-5.86-13.536-8.79-21.21-8.79s-15.352 2.93-21.21 8.79l-120 120c-11.718 11.718-11.718 30.704 0 42.422s30.704 11.718 42.422 0l98.788-98.79 158.79 158.79c11.718 11.718 30.704 11.718 42.422 0s11.718-30.704-0.002-42.422z" />
<glyph unicode="&#xe91e;" glyph-name="construction-and-tools" d="M993.969-40.984c-29.313 22.461-61.023 41.609-94.555 57.086l-119.867 55.344c-5.93-16.898-21.43-54.711-52.063-92.734-12.945-16.070-27.070-30.313-42.242-42.711h338.758zM296.516-21.289c-30.633 38.023-46.133 75.836-52.063 92.734l-119.867-55.344c-33.531-15.477-65.242-34.625-94.555-57.086l-30.031-23.016h338.758c-15.164 12.398-29.297 26.633-42.242 42.711zM707.297 124.008v6.828c-52.867-44.445-121.008-71.258-195.297-71.258s-142.43 26.813-195.289 71.258v-6.828c0-11.672-6.844-22.367-17.43-27.25 0 0 46.297-160.758 212.727-160.758 166.422 0 212.719 160.758 212.719 160.758-10.594 4.883-17.43 15.578-17.43 27.25zM512 119.609c134.547 0 244 109.5 244 244.102v108.063h-488v-108.063c0-134.602 109.461-244.102 244-244.102zM204.719 531.805h614.563c16.57 0 30 13.438 30 30.008 0 16.578-13.43 30.016-30 30.016h-25.203v31.031c0 96.734-48.906 182.234-123.273 233.102v-126.633c0-16.578-13.43-30.016-30-30.016-16.563 0-30 13.438-30 30.016v145.719c0 3.992 0.797 7.805 2.219 11.289-22.445 8.641-46.258 14.492-71.023 17.125v-210.945c0-16.578-13.438-30.016-30-30.016-16.57 0-30 13.438-30 30.016v210.945c-24.766-2.625-48.57-8.484-71.008-17.117 1.414-3.492 2.211-7.297 2.211-11.297v-145.719c0-16.578-13.43-30.016-30-30.016s-30 13.438-30 30.016v126.648c-74.375-50.867-123.289-136.383-123.289-233.117v-31.031h-25.203c-16.563 0-30-13.438-30-30.016 0-16.57 13.438-30.008 30.008-30.008zM670.805 875.047c0 16.578-13.43 30.016-30 30.016-12.57 0-23.328-7.75-27.781-18.734 20.516-7.898 39.891-18.125 57.781-30.367zM383.211 905.062c-16.57 0-30-13.438-30-30.016v-19.070c17.891 12.242 37.266 22.469 57.781 30.367-4.461 10.969-15.211 18.719-27.781 18.719zM542 903.461v26.523c0 16.578-13.43 30.016-30 30.016s-30-13.438-30-30.016v-26.523c9.859 1.055 19.867 1.602 30 1.602s20.141-0.547 30-1.602z" />
<glyph unicode="&#xe91f;" glyph-name="circle-target" d="M490.667 917.376v-86.417c-194.775-10.798-350.9-166.837-361.625-361.625h-86.417v-42.666h86.417c10.815-194.709 166.913-350.78 361.625-361.583v-86.459h42.667v86.459c194.769 10.735 350.775 166.827 361.583 361.583h86.458v42.666h-86.458c-10.718 194.836-166.751 350.897-361.583 361.625v86.417zM490.667 788.251v-85.334c-124.123-10.337-223.296-109.456-233.583-233.583h-85.333c10.559 171.665 147.263 308.287 318.917 318.917zM533.333 788.251c171.709-10.564 308.365-147.204 318.917-318.917h-85.333c-10.277 124.171-109.413 223.306-233.583 233.583zM512.083 661.334c118.074 0 213.208-95.176 213.208-213.25s-95.134-213.375-213.208-213.375c-118.074 0-213.417 95.301-213.417 213.375s95.343 213.25 213.417 213.25zM512.083 575.959c-16.886 0-33.211-3.29-48.042-9.292l16.042-39.5c9.848 3.983 20.634 6.289 32 6.289 47.382 0 85.333-37.993 85.333-85.375 0-47.381-37.952-85.333-85.333-85.333s-85.375 37.953-85.375 85.333c0 19.889 6.648 37.97 17.958 52.459l-33.542 26.127c-16.934-21.693-27.083-49.015-27.083-78.584 0-70.44 57.601-128.041 128.042-128.041s128 57.601 128 128.041c0 70.441-57.56 127.875-128 127.875zM171.75 426.668h85.333c10.362-124.063 109.516-223.196 233.583-233.542v-85.375c-171.59 10.637-308.268 147.33-318.917 318.917zM766.917 426.668h85.333c-10.641-171.634-147.272-308.347-318.917-318.917v85.375c124.115 10.287 223.232 109.435 233.583 233.542z" />
<glyph unicode="&#xe920;" glyph-name="work" d="M636.821 754.219c-3.307 2.069-6.485 4.501-9.493 7.275-16.619 15.211-28.139 40.448-28.139 40.448-0.512 1.152-0.917 2.325-1.216 3.541l-21.333 85.333c-0.427 1.707-0.64 3.435-0.64 5.184 0 35.328 28.672 64 64 64h213.333c35.328 0 64-28.672 64-64 0-1.749-0.213-3.477-0.64-5.184l-21.333-85.333c-0.299-1.216-0.704-2.389-1.216-3.541 0 0-11.52-25.237-28.139-40.448-3.008-2.773-6.187-5.205-9.493-7.275l103.083-515.371c1.131-5.675-0.085-11.563-3.392-16.32l-192-277.333c-3.989-5.76-10.539-9.195-17.536-9.195s-13.547 3.435-17.536 9.195l-192 277.333c-3.307 4.757-4.523 10.645-3.392 16.32l103.083 515.371zM831.573 661.333h-169.813l-84.395-421.973s169.301-244.544 169.301-244.544 169.301 244.544 169.301 244.544zM170.667 746.667c0 35.328 28.672 64 64 64h298.667c11.776 0 21.333-9.557 21.333-21.333s-9.557-21.333-21.333-21.333h-298.667c-11.776 0-21.333-9.557-21.333-21.333v-64h341.333c11.776 0 21.333-9.557 21.333-21.333s-9.557-21.333-21.333-21.333h-448v-134.891l213.461-85.376c1.92 27.691 25.024 49.6 53.205 49.6h64c28.181 0 51.285-21.909 53.205-49.6l13.547 5.397c10.923 4.373 23.36-0.939 27.712-11.883 4.373-10.923-0.939-23.36-11.883-27.712l-29.248-11.712v-21.824c0-29.44-23.893-53.333-53.333-53.333h-64c-29.44 0-53.333 23.893-53.333 53.333v21.824l-192 76.8v-322.624h384c11.776 0 21.333-9.557 21.333-21.333s-9.557-21.333-21.333-21.333h-405.333c-11.776 0-21.333 9.557-21.333 21.333v361.024l-7.915 3.179c-8.107 3.221-13.419 11.072-13.419 19.797v170.667c0 11.776 9.557 21.333 21.333 21.333h85.333zM810.965 380.501l20.032-120.256s-59.947-99.947-59.947-99.947c-6.059-10.091-2.795-23.211 7.317-29.248 10.091-6.059 23.211-2.795 29.248 7.317l64 106.667c2.624 4.331 3.584 9.472 2.752 14.464l-21.333 128c-1.92 11.627-12.928 19.477-24.533 17.536-11.627-1.92-19.477-12.928-17.536-24.533zM448 388.629v27.371c0 5.888-4.779 10.667-10.667 10.667h-64c-5.888 0-10.667-4.779-10.667-10.667v-64c0-5.888 4.779-10.667 10.667-10.667h64c5.888 0 10.667 4.779 10.667 10.667v35.861c0 0.256 0 0.512 0 0.768zM678.827 746.667l-8.533-42.667h152.747l-8.533 42.667zM832.107 789.333c1.152 0.064 2.005 1.109 3.008 1.877 2.133 1.6 4.096 3.627 5.909 5.739 6.741 7.808 11.627 17.173 13.461 20.907l20.075 80.32v0.064c-1.131 10.709-10.197 19.093-21.227 19.093h-213.333c-11.029 0-20.117-8.384-21.227-19.157 0 0 20.075-80.32 20.139-80.405 1.792-3.691 6.656-13.035 13.397-20.821 1.813-2.112 3.776-4.139 5.909-5.739 1.003-0.768 1.856-1.813 3.008-1.877h170.411z" />
<glyph unicode="&#xe921;" glyph-name="google-play" d="M223.503 943.623c-40.062 22.143-87.099 21.631-126.905-0.32l466.534-430.376 156.727 156.727-496.356 273.968zM49.945 899.273c-11.391-18.623-17.919-39.934-17.919-62.524v-777.3c0-21.887 5.952-42.75 16.703-60.989l469.157 469.157-467.941 431.656zM927.655 554.973l-149.496 82.491-167.99-167.926 205.876-189.877 111.674 61.629c40.19 22.271 64.252 62.204 64.252 106.874-0.064 44.669-24.063 84.603-64.316 106.81zM564.924 424.228l-470.437-470.437c20.415-11.647 42.814-17.791 65.34-17.791 21.759 0 43.646 5.504 63.676 16.575l533.538 294.447-192.117 177.206z" />
<glyph unicode="&#xe922;" glyph-name="download-pdf" d="M664 256h-60c-22.092 0-40-17.908-40-40v-240c0-22.092 17.908-40 40-40h60c66.168 0 120 53.832 120 120v80c0 66.168-53.832 120-120 120zM704 56c0-22.056-17.944-40-40-40h-20v160h20c22.056 0 40-17.944 40-40zM984 256h-120c-22.092 0-40-17.908-40-40v-240c0-22.092 17.908-40 40-40s40 17.908 40 40v80h40c22.092 0 40 17.908 40 40s-17.908 40-40 40h-40v40h80c22.092 0 40 17.908 40 40s-17.908 40-40 40zM424 256h-80c-22.092 0-40-17.908-40-40v-240c0-22.092 17.908-40 40-40s40 17.908 40 40v80h40c55.14 0 100 44.86 100 100s-44.86 100-100 100zM424 136h-40v40h40c11.028 0 20-8.972 20-20s-8.972-20-20-20zM428.286 331.718l79.998 79.998c15.622 15.622 15.622 40.948 0 56.568s-40.948 15.622-56.568 0l-11.716-11.716v143.432c0 22.092-17.908 40-40 40s-40-17.908-40-40v-143.432l-11.716 11.716c-15.622 15.622-40.948 15.622-56.568 0s-15.622-40.948 0-56.568l79.998-79.998c15.58-15.586 41.022-15.556 56.572 0zM788.264 708.304l-239.976 239.976c-0.442 0.296-10.882 11.72-28.288 11.72h-400c-66.168 0-120-53.832-120-120v-784c0-66.168 53.832-120 120-120h80c22.092 0 40 17.908 40 40s-17.908 40-40 40h-80c-22.056 0-40 17.944-40 40v784c0 22.056 17.944 40 40 40h360v-120c0-66.168 53.832-120 120-120h120v-280c0-22.092 17.908-40 40-40s40 17.908 40 40v320.002c0 10.5-4.29 20.884-11.736 28.302zM600 720c-22.056 0-40 17.944-40 40v63.432l103.432-103.432z" />
<glyph unicode="&#xe923;" glyph-name="flag" d="M953.596 371.2l-177.6 236.8 177.6 236.8c7.232 9.664 8.448 22.656 3.008 33.472s-16.512 17.728-28.608 17.728h-800v32c0 17.664-14.336 32-32 32s-32-14.336-32-32v-960c0-17.664 14.336-32 32-32s32 14.336 32 32v352h800c12.096 0 23.168 6.848 28.608 17.664s4.288 23.808-3.008 33.536z" />
<glyph unicode="&#xe924;" glyph-name="download" d="M1024 128v-152c0-22.094-17.906-40-40-40h-944c-22.094 0-40 17.906-40 40v152c0 22.094 17.906 40 40 40s40-17.906 40-40v-112h864v112c0 22.094 17.906 40 40 40s40-17.906 40-40zM483.711 99.719c15.383-15.391 40.836-15.742 56.578 0l226.266 226.273c15.625 15.617 15.625 40.945 0 56.563-15.617 15.625-40.945 15.625-56.563 0l-157.992-157.984v695.43c0 22.094-17.906 40-40 40s-40-17.906-40-40v-695.43l-157.992 157.984c-15.617 15.625-40.945 15.625-56.563 0-15.625-15.617-15.625-40.945 0-56.563z" />
<glyph unicode="&#xe925;" glyph-name="user" d="M748.308 723.692c0-130.509-105.799-236.308-236.308-236.308s-236.308 105.799-236.308 236.308c0 130.509 105.799 236.308 236.308 236.308s236.308-105.799 236.308-236.308zM970.831 241.546c-265.846 223.153-651.894 223.153-917.74 0-8.665-7.326-13.706-18.038-13.706-29.46 0-38.046 0-130.048 0-197.396 0-43.481 35.289-78.69 78.769-78.69h787.692c43.481 0 78.769 35.21 78.769 78.69v181.957c0 26.86-5.041 37.573-13.785 44.898z" />
<glyph unicode="&#xe926;" glyph-name="done" d="M938.667 490.667c-23.564 0-42.667-19.103-42.667-42.667v0-256c0-70.692-57.308-128-128-128v0h-512c-70.692 0-128 57.308-128 128v0 512c0 70.692 57.308 128 128 128v0h341.333c23.564 0 42.667 19.103 42.667 42.667s-19.103 42.667-42.667 42.667v0h-341.333c-117.821 0-213.333-95.513-213.333-213.333v0-512c0-117.821 95.513-213.333 213.333-213.333v0h512c117.821 0 213.333 95.513 213.333 213.333v0 256c0 23.564-19.103 42.667-42.667 42.667v0zM371.2 597.333c-7.865 9.012-19.371 14.674-32.2 14.674-23.564 0-42.667-19.103-42.667-42.667 0-13.042 5.851-24.717 15.072-32.543l0.061-0.051 164.693-161.707c7.69-7.542 18.235-12.197 29.867-12.197s22.177 4.655 29.874 12.203l-0.007-0.007 347.307 341.333c6.502 7.448 10.466 17.257 10.466 27.992 0 23.564-19.103 42.667-42.667 42.667-10.522 0-20.155-3.809-27.594-10.123l0.061 0.051-317.44-311.893z" />
<glyph unicode="&#xe927;" glyph-name="down-chevron" d="M140.5 673.826c16.662 16.662 43.677 16.662 60.34 0l311.165-311.164 311.164 311.164c16.661 16.662 43.678 16.662 60.339 0l30.17-30.17c16.661-16.662 16.661-43.677 0-60.34l-356.42-356.419c-24.994-24.994-65.515-24.994-90.509 0l-356.418 356.419c-16.662 16.662-16.662 43.677 0 60.34z" />
<glyph unicode="&#xe928;" glyph-name="asterisk" d="M26.485 955.43c-6.054 6.054-15.889 6.054-21.944 0s-6.054-15.889 0-21.944l992.934-992.934c6.054-6.054 15.889-6.054 21.944 0s6.054 15.889 0 21.944zM4.57-37.501c-6.054-6.054-6.054-15.889 0-21.944s15.889-6.054 21.944 0l992.903 992.96c6.054 6.054 6.054 15.889 0 21.944s-15.889 6.054-21.944 0c0.028-0.028-992.903-992.96-992.903-992.96zM527.52 944.458c0 8.554-6.944 15.527-15.527 15.527-8.554 0-15.527-6.944-15.527-15.527v-992.934c0-8.554 6.944-15.527 15.527-15.527 8.554 0 15.527 6.944 15.527 15.527zM15.542 463.533c-8.554 0-15.527-6.944-15.527-15.527 0-8.554 6.944-15.527 15.527-15.527h992.934c8.554 0 15.527 6.944 15.527 15.527 0 8.554-6.944 15.527-15.527 15.527z" />
<glyph unicode="&#xe929;" glyph-name="loupe" d="M450.948 960c-248.646 0-450.948-202.302-450.948-450.948 0-248.66 202.302-450.948 450.948-450.948 248.66 0 450.948 202.288 450.948 450.948 0 248.646-202.288 450.948-450.948 450.948zM450.948 141.354c-202.746 0-367.696 164.95-367.696 367.696s164.95 367.698 367.696 367.698 367.696-164.95 367.696-367.696-164.95-367.698-367.696-367.698zM1011.804 7.056l-238.656 238.656c-16.262 16.262-42.598 16.262-58.86 0-16.262-16.248-16.262-42.612 0-58.86l238.656-238.656c8.13-8.13 18.774-12.196 29.43-12.196 10.642 0 21.298 4.066 29.43 12.196 16.262 16.248 16.262 42.612 0 58.86z" />
<glyph unicode="&#xe92a;" glyph-name="diagonal-arrow" d="M160 256c17.664 0 32 14.336 32 32v416c0 35.296 28.704 64 64 64h512c35.296 0 64-28.704 64-64v-512c0-35.296-28.704-64-64-64h-416c-17.664 0-32-14.336-32-32s14.336-32 32-32h416c70.576 0 128 57.424 128 128v512c0 70.576-57.424 128-128 128h-512c-70.576 0-128-57.424-128-128v-416c0-17.664 14.336-32 32-32zM329.376 265.376c6.24-6.256 14.432-9.376 22.624-9.376s16.384 3.12 22.624 9.376l265.376 265.376v-98.752c0-17.664 14.336-32 32-32s32 14.336 32 32v176c0 17.664-14.336 32-32 32h-176c-17.664 0-32-14.336-32-32s14.336-32 32-32h98.752l-265.376-265.376c-12.496-12.496-12.496-32.752 0-45.248z" />
<glyph unicode="&#xe92b;" glyph-name="global1" d="M966.656 684.096l-3.328-1.472c-74.624-33.216-152.128-57.344-231.616-73.216 22.464-106.56 22.4-216.64-0.128-323.136 79.488-15.808 157.376-39.744 231.68-72.832l3.264-1.472c36.544 70.72 57.472 150.848 57.472 236.032s-20.928 165.312-57.344 236.096zM372.224 233.664c28.288-90.048 74.944-175.36 139.712-250.752 64.768 75.392 111.488 160.704 139.712 250.752-92.736 12.288-186.688 12.224-279.424 0zM668.288 599.424c-51.456-7.232-103.424-12.16-156.288-12.16-52.928 0-104.896 4.992-156.352 12.16-21.568-99.968-21.568-203.392 0.128-303.36 103.616 14.4 208.768 14.4 312.384 0 21.696 99.968 21.76 203.392 0.128 303.36zM511.936 913.088c-64.768-75.392-111.424-160.704-139.712-250.816 92.736-12.224 186.752-12.224 279.424 0-28.288 90.048-74.944 175.424-139.712 250.816zM556.096 960c75.136-86.016 128.64-184.128 159.744-287.744 74.624 14.592 147.712 36.8 217.472 67.584-84.48 122.816-220.8 206.72-377.216 220.16zM90.624 739.84c69.824-30.72 142.912-52.992 217.472-67.584 31.104 103.616 84.608 201.728 159.744 287.744-156.416-13.44-292.672-97.344-377.216-220.16zM292.288 609.344c-79.488 15.936-156.928 40-231.488 73.216l-3.328 1.472c-36.544-70.72-57.472-150.848-57.472-236.032s20.928-165.312 57.472-236.096l3.328 1.472c74.24 33.152 152.128 57.088 231.616 72.832-22.592 106.496-22.592 216.576-0.128 323.136zM308.096 223.68c-74.624-14.528-147.712-36.8-217.472-67.52 84.544-122.816 220.8-206.72 377.216-220.16-75.136 86.016-128.64 184.128-159.744 287.68zM715.84 223.744c-31.040-103.616-84.608-201.728-159.744-287.744 156.416 13.44 292.736 97.344 377.216 220.16-69.76 30.784-142.848 52.992-217.472 67.584z" />
<glyph unicode="&#xe92c;" glyph-name="right-arrow" d="M1002.789 481.239l-950.834 438.846c-15.14 6.875-33.206 2.779-43.738-10.24-10.605-13.019-10.971-31.524-0.878-44.909l312.678-416.904-312.678-416.904c-10.093-13.385-9.728-31.963 0.805-44.909 7.095-8.85 17.7-13.604 28.452-13.604 5.193 0 10.386 1.097 15.286 3.364l950.834 438.846c13.019 5.998 21.284 18.944 21.284 33.206s-8.265 27.208-21.211 33.206z" />
<glyph unicode="&#xe92d;" glyph-name="more" d="M424.495 653.731c0-65.294-52.931-118.225-118.225-118.225s-118.225 52.931-118.225 118.225c0 65.294 52.931 118.225 118.225 118.225s118.225-52.931 118.225-118.225zM424.495 242.269c0-65.294-52.931-118.225-118.225-118.225s-118.225 52.931-118.225 118.225c0 65.294 52.931 118.225 118.225 118.225s118.225-52.931 118.225-118.225zM835.956 653.731c0-65.294-52.931-118.225-118.225-118.225s-118.225 52.931-118.225 118.225c0 65.294 52.931 118.225 118.225 118.225s118.225-52.931 118.225-118.225zM835.956 242.269c0-65.294-52.931-118.225-118.225-118.225s-118.225 52.931-118.225 118.225c0 65.294 52.931 118.225 118.225 118.225s118.225-52.931 118.225-118.225z" />
<glyph unicode="&#xe92e;" glyph-name="telephone" d="M928.012 192.012c-92.932 0-181.449 20.225-263.052 60.099-7.68 3.84-16.513 4.288-24.513 1.472-8.064-2.816-14.657-8.704-18.369-16.321l-50.306-104.133c-130.182 72.643-237.963 180.36-310.543 310.543l104.069 50.434c7.68 3.712 13.505 10.304 16.321 18.369 2.752 8 2.24 16.833-1.536 24.513-39.874 81.604-60.099 170.12-60.099 263.052 0 17.665-14.337 32.002-32.002 32.002h-192.009c-17.665 0-32.002-14.337-32.002-32.002 0-476.438 387.602-864.041 864.041-864.041 17.665 0 32.002 14.337 32.002 32.002v192.009c0 17.665-14.337 32.002-32.002 32.002zM886.666 822.634l-128.006 128.006c-12.481 12.481-32.77 12.481-45.25 0l-128.006-128.006c-12.481-12.481-12.481-32.77 0-45.25s32.77-12.481 45.25 0l73.347 73.411v-229.515l-182.665-182.601c-12.481-12.481-12.481-32.77 0-45.25 6.272-6.272 14.465-9.408 22.657-9.408s16.385 3.136 22.657 9.344l192.009 192.009c5.952 6.016 9.344 14.145 9.344 22.657v242.763l73.347-73.347c6.272-6.272 14.465-9.408 22.657-9.408s16.385 3.136 22.657 9.344c12.481 12.481 12.481 32.77 0 45.25zM950.669 438.616l-112.005 112.005c-12.545 12.545-32.77 12.545-45.314 0.064-12.481-12.481-12.481-32.77 0-45.25l112.005-112.005c6.272-6.272 14.465-9.408 22.657-9.408s16.385 3.136 22.657 9.344c12.481 12.481 12.481 32.77 0 45.25z" />
<glyph unicode="&#xe92f;" glyph-name="down-chevron1" d="M903.252 764.372l-391.252-391.252-391.252 391.252-120.748-120.744 512-512 512 512z" />
<glyph unicode="&#xe930;" glyph-name="right-arrow1" d="M268.205-64c-6.242 0-12.484 2.39-17.263 7.12-9.508 9.508-9.508 24.967 0 34.475l470.375 470.375-470.375 470.423c-9.508 9.508-9.508 24.967 0 34.475s24.967 9.508 34.475 0l487.637-487.637c9.508-9.508 9.508-24.967 0-34.475l-487.637-487.637c-4.728-4.728-10.97-7.118-17.213-7.118z" />
<glyph unicode="&#xe931;" glyph-name="left-arrow" d="M755.843-64c-6.242 0-12.484 2.39-17.263 7.12l-487.637 487.637c-9.508 9.508-9.508 24.967 0 34.475l487.637 487.637c9.508 9.508 24.967 9.508 34.475 0s9.508-24.967 0-34.475l-470.373-470.377 470.373-470.373c9.508-9.508 9.508-24.967 0-34.475-4.73-4.78-10.97-7.17-17.213-7.17z" />
<glyph unicode="&#xe932;" glyph-name="check" d="M346.136 205.018c-30.283 34.022-54.746 67.302-78.376 99.533-20.172 27.080-38.795 57.747-54.432 90.127l-1.476 3.39c-9.76 19.958-14.080 40.168 7.061 53.162 60.587 37.234 73.003 1.682 105.934-39.57 19.52-24.443 48.304-64.75 66.339-90.218 17.227-24.32 38.229 19.574 46.613 31.96 29.798 44.018 107.246 151.781 139.251 191.614 30.384 37.814 128.456 143.75 146.738 160.6 15.562 14.347 48.418 45.816 70.512 28.456 23.218-18.24 34.56-52.912 18.24-75.456-28.422-39.248-73.067-76.584-103.958-113.955-62.531-75.648-121.733-157.19-178.56-238.381-19.31-27.59-46.422-73.8-63.254-103.722-31.486-55.976-59.142-66.629-120.63 2.459z" />
<glyph unicode="&#xe933;" glyph-name="rocket" d="M715.091 651.091c27.843-28.16 27.843-73.92 0-101.76-28.157-28.16-73.92-28.16-101.76 0-28.16 27.84-28.16 73.6 0 101.76 13.76 14.080 32.32 21.12 50.88 21.12 18.24 0 36.8-7.040 50.88-21.12zM1003.411 939.411s-248.64 22.717-497.6-226.24c-248.96-248.96-227.2-315.84-227.2-315.84l91.2-91.52 91.52-91.2s66.88-21.76 315.84 227.2 226.24 497.6 226.24 497.6zM749.011 515.091c-23.36-23.36-54.080-34.88-84.8-34.88s-61.44 11.52-85.12 34.88c-46.72 47.040-46.72 123.2 0 169.92 47.040 46.72 122.88 46.72 169.923 0 46.72-46.72 46.72-122.88 0-169.92zM395.411 212.688l-70.72-42.56-90.56 90.56 42.56 70.723zM363.411 631.568c-42.88-49.28-72.96-89.6-93.44-123.2l-13.12 1.28-158.4-22.72 113.92 113.92c28.16 28.16 67.52 41.6 106.88 36.48l44.16-5.763zM664.851 148.368l-113.92-113.92 22.72 158.4-1.28 13.12c33.28 20.48 74.24 50.56 123.2 93.76l5.76-44.48c5.12-39.36-8.317-78.72-36.48-106.88zM44.051-43.952c-6.141 0-12.282 2.342-16.97 7.030-9.376 9.376-9.376 24.563 0 33.936l99.517 99.533c9.376 9.376 24.563 9.376 33.936 0s9.376-24.563 0-33.936l-99.517-99.533c-4.688-4.688-10.829-7.030-16.97-7.030zM225.174-43.952c-6.125 0-12.25 2.342-16.938 7.002-9.392 9.344-9.421 24.531-0.064 33.936l76.797 77.126c9.344 9.405 24.547 9.405 33.936 0.064s9.421-24.531 0.064-33.936l-76.797-77.126c-4.688-4.72-10.845-7.062-16.998-7.062zM44.051 137.174c-6.157 0-12.314 2.342-17.014 7.062-9.344 9.405-9.312 24.595 0.077 33.936l77.126 76.781c9.405 9.312 24.563 9.376 33.952-0.064 9.344-9.405 9.312-24.595-0.077-33.936l-77.126-76.781c-4.688-4.656-10.813-7.002-16.938-7.002z" />
<glyph unicode="&#xe934;" glyph-name="businessman" d="M1023.36-37.462l-33.152 132.566c-7.594 30.25-27.904 55.638-55.808 69.546l-220.886 110.422c-5.206 2.602-11.35 2.944-16.896 0.938s-9.942-6.23-12.288-11.648l-109.866-256.384-16.17 32.298c14.294 19.584 39.040 57.942 39.040 87.722 0 39.466-32.726 64-85.334 64s-85.334-24.534-85.334-64c0-29.782 24.746-68.138 38.998-87.68l-16.17-32.298-109.866 256.384c-2.346 5.418-6.742 9.642-12.288 11.648-5.546 1.962-11.606 1.664-16.896-0.938l-220.844-110.464c-27.862-13.952-48.214-39.296-55.808-69.546l-33.152-132.566c-1.578-6.358-0.17-13.142 3.882-18.304 4.010-5.206 10.24-8.234 16.81-8.234h981.334c6.57 0 12.8 3.030 16.854 8.192 4.010 5.162 5.418 11.946 3.84 18.346zM802.346 608.726c-3.712 11.178-15.786 17.238-26.966 13.482-11.178-3.712-17.194-15.786-13.482-26.966 4.010-11.946 6.102-25.984 6.102-40.576 0-41.258-15.36-63.958-22.698-63.018-5.76 3.584-12.97 4.224-19.286 1.664s-11.008-8.022-12.672-14.634c-29.868-120.448-110.764-201.344-201.344-201.344s-171.478 80.896-201.344 201.344c-1.664 6.614-7.040 11.562-13.354 14.122-6.358 2.602-14.166 1.45-19.968-2.134-5.334 0-21.334 22.698-21.334 64 0 14.592 2.090 28.63 6.102 40.576 3.712 11.136-2.304 23.254-13.526 26.966-11.178 3.754-23.254-2.304-26.966-13.482-5.418-16.214-8.278-34.902-8.278-54.058 0-59.434 26.282-104.576 61.482-106.624 38.742-128.47 132.098-213.378 237.186-213.378s198.442 84.906 237.184 213.376c35.2 2.048 61.482 47.19 61.482 106.624 0 19.158-2.858 37.846-8.32 54.060zM512 960c-164.694 0-298.666-133.974-298.666-298.666 0-19.798 2.432-40.106 7.68-63.958 2.134-9.77 10.794-16.768 20.822-16.768 24.15 0 53.334-4.352 53.632-4.394 1.238-0.17 2.304-0.256 3.626-0.214 11.648-0.17 21.76 9.386 21.76 21.334 0 2.602-0.47 5.034-1.28 7.338-2.602 42.582 0.086 85.632 6.016 99.328h3.242c73.77 0 110.55 23.424 127.53 52.992 45.994-45.398 138.496-89.174 227.926-94.976 5.078-35.84 20.778-71.51 21.59-73.302 3.414-7.808 11.094-12.714 19.456-12.714 0.554 0 1.152 0 1.75 0.042l56.832 4.65c9.344 0.768 17.066 7.552 19.114 16.682 5.206 23.85 7.638 44.16 7.638 63.958-0.002 164.694-133.976 298.668-298.668 298.668zM448 576h-42.666c-11.776 0-21.334-9.558-21.334-21.334s9.558-21.334 21.334-21.334h42.666c11.776 0 21.334 9.558 21.334 21.334s-9.558 21.334-21.334 21.334zM618.666 576h-42.666c-11.776 0-21.334-9.558-21.334-21.334s9.558-21.334 21.334-21.334h42.666c11.776 0 21.334 9.558 21.334 21.334s-9.558 21.334-21.334 21.334z" />
<glyph unicode="&#xe935;" glyph-name="pay-per-click" d="M352 944c-141.12 0-256-114.88-256-256s114.88-256 256-256c46.56 0 90.4 12.64 128 34.56v93.44c0 52.96 43.040 96 96 96 10.24 0 20-1.6 29.28-4.48 1.76 11.84 2.72 24 2.72 36.48 0 141.12-114.88 256-256 256zM352 704c44.16 0 80-35.84 80-80 0-38.56-27.52-70.88-64-78.4v-17.6c0-8.8-7.2-16-16-16s-16 7.2-16 16v17.6c-36.48 7.52-64 39.84-64 78.4 0 8.8 7.2 16 16 16s16-7.2 16-16c0-26.4 21.6-48 48-48s48 21.6 48 48-21.6 48-48 48c-44.16 0-80 35.84-80 80 0 38.56 27.52 70.88 64 78.4v17.6c0 8.8 7.2 16 16 16s16-7.2 16-16v-17.6c36.48-7.52 64-39.84 64-78.4 0-8.8-7.2-16-16-16s-16 7.2-16 16c0 26.4-21.6 48-48 48s-48-21.6-48-48 21.6-48 48-48zM928 240v-112c0-27.68-6.192-71.904-13.808-98.544l-18.816-65.856c-1.952-6.864-8.24-11.6-15.376-11.6h-352c-6.064 0-11.6 3.424-14.32 8.848l-15.456 30.928-191.296 270.992c-2.576 3.632-3.504 8.176-2.592 12.528 0.928 4.352 3.616 8.128 7.424 10.416l40 24c8.528 5.12 18.4 7.712 29.344 7.712 25.552 0 52.896-14.336 71.36-37.408l59.52-74.4v354.384c0 35.296 28.704 64 64 64s64-28.704 64-64v-232.592c9.44 5.472 20.368 8.592 32.016 8.592 23.248 0 43.632-12.448 54.832-31.024 11.136 9.36 25.504 15.024 41.168 15.024 23.248 0 43.632-12.448 54.832-31.024 11.136 9.36 25.504 15.024 41.168 15.024 35.296 0 64-28.704 64-64z" />
<glyph unicode="&#xe936;" glyph-name="zoom-in" d="M949.76 55.36l-160 148.16c64.906 73.038 104.555 169.782 104.555 275.786 0 229.75-186.25 416-416 416s-416-186.25-416-416c0-229.75 186.25-416 416-416 101.765 0 194.996 36.541 267.287 97.218l-0.642-0.524v-1.6l160-149.12c5.855-6.245 14.156-10.135 23.365-10.135 17.673 0 32 14.327 32 32 0 10.007-4.594 18.942-11.787 24.81l-0.058 0.046zM480 128c-194.404 0-352 157.596-352 352s157.596 352 352 352c194.404 0 352-157.596 352-352v0c0-194.404-157.596-352-352-352v0zM720 480c0-17.673-14.327-32-32-32v0h-176v-176c0-17.673-14.327-32-32-32s-32 14.327-32 32v0 176h-176c-17.673 0-32 14.327-32 32s14.327 32 32 32v0h176v176c0 17.673 14.327 32 32 32s32-14.327 32-32v0-176h176c17.673 0 32-14.327 32-32v0z" />
<glyph unicode="&#xe937;" glyph-name="right" d="M512 149.333c-0.074 0-0.161-0.001-0.248-0.001-23.564 0-42.667 19.103-42.667 42.667 0 11.844 4.826 22.561 12.619 30.291l0.003 0.003 226.133 225.707-226.133 225.707c-6.377 7.412-10.259 17.129-10.259 27.753 0 23.564 19.103 42.667 42.667 42.667 10.624 0 20.341-3.883 27.809-10.307l-0.056 0.047 256-256c7.668-7.712 12.407-18.343 12.407-30.080s-4.74-22.368-12.409-30.082l-255.998-255.998c-7.667-7.606-18.211-12.323-29.857-12.373h-0.010zM256 149.333c-0.074 0-0.161-0.001-0.248-0.001-23.564 0-42.667 19.103-42.667 42.667 0 11.844 4.826 22.561 12.619 30.291l0.003 0.003 226.133 225.707-226.133 225.707c-7.753 7.753-12.548 18.463-12.548 30.293 0 23.661 19.181 42.841 42.841 42.841 11.83 0 22.541-4.795 30.293-12.548l256-256c7.668-7.712 12.407-18.343 12.407-30.080s-4.74-22.368-12.409-30.082l-255.998-255.998c-7.709-7.861-18.426-12.749-30.284-12.8h-0.010z" />
<glyph unicode="&#xe938;" glyph-name="quote" d="M0 374.857h219.428l-146.287-292.57h219.428l146.287 292.57v438.857h-438.857zM585.143 813.713v-438.857h219.428l-146.287-292.57h219.428l146.287 292.57v438.857z" />
<glyph unicode="&#xe939;" glyph-name="right-arrow-1" d="M584.855 9.142l439.143 438.858-438.999 438.858-51.714-51.572 350.715-350.715h-884v-73.144h883.998l-350.857-350.857z" />
<glyph unicode="&#xe93a;" glyph-name="up-arrow" d="M950.858 520.857l-438.858 439.143-438.858-439.001 51.572-51.714 350.715 350.715v-883.998h73.144v883.998l350.859-350.859z" />
<glyph unicode="&#xe93b;" glyph-name="headphones" d="M945.804 381.337v83.926c0 115.874-45.124 224.81-127.058 306.745s-190.87 127.060-306.745 127.060-224.81-45.124-306.747-127.060c-81.934-81.934-127.058-190.872-127.058-306.745v-83.926c-43.532-2.47-78.196-38.658-78.196-82.8v-129.948c0-45.736 37.21-82.948 82.946-82.948h47.952c3.412-49.482 44.732-88.708 95.066-88.708 52.56 0 95.322 42.762 95.322 95.322v282.613c0 52.56-42.762 95.322-95.322 95.322-9.654 0-18.97-1.454-27.758-4.134 0.43 172.668 141.028 313.013 313.795 313.013s313.365-140.344 313.793-313.013c-8.788 2.68-18.106 4.134-27.758 4.134-52.56 0-95.322-42.762-95.322-95.322v-282.611c0-52.56 42.762-95.322 95.322-95.322 50.334 0 91.654 39.224 95.066 88.708h47.952c45.736 0 82.946 37.21 82.946 82.948v129.948c0.002 44.14-34.662 80.328-78.196 82.798z" />
<glyph unicode="&#xe93c;" glyph-name="left-arrow-1" d="M439.15 886.856l-439.15-438.855 439.004-438.857 51.712 51.565-350.72 350.72h884.004v73.141h-884.004l350.867 350.867z" />
<glyph unicode="&#xe93d;" glyph-name="up-arrow-1" d="M999.605 179.798c-6.242 0-12.484 2.39-17.262 7.12l-470.367 470.415-470.369-470.367c-9.508-9.508-24.967-9.508-34.475 0s-9.508 24.967 0 34.475l487.631 487.631c9.508 9.508 24.967 9.508 34.475 0l487.631-487.631c9.508-9.508 9.508-24.967 0-34.475-4.78-4.78-11.022-7.168-17.264-7.168z" />
<glyph unicode="&#xe93e;" glyph-name="down-arrow" d="M512.049 179.808c-6.242 0-12.485 2.39-17.263 7.121l-487.653 487.653c-9.509 9.509-9.509 24.968 0 34.476s24.968 9.509 34.476 0l470.392-470.39 470.39 470.392c9.509 9.509 24.968 9.509 34.476 0s9.509-24.968 0-34.476l-487.655-487.655c-4.678-4.73-10.921-7.121-17.163-7.121z" />
<glyph unicode="&#xe93f;" glyph-name="telephone-2" d="M987.429 228.571c-106.203 0-207.36 23.113-300.617 68.681-8.777 4.389-18.871 4.901-28.014 1.682-9.216-3.218-16.75-9.947-20.992-18.651l-57.49-119.003c-148.773 83.017-271.945 206.117-354.889 354.889l118.93 57.637c8.777 4.242 15.433 11.776 18.651 20.992 3.145 9.143 2.56 19.237-1.755 28.014-45.568 93.257-68.681 194.414-68.681 300.617 0 20.187-16.384 36.571-36.571 36.571h-219.429c-20.187 0-36.571-16.384-36.571-36.571 0-544.475 442.953-987.429 987.429-987.429 20.187 0 36.571 16.384 36.571 36.571v219.429c0 20.187-16.384 36.571-36.571 36.571zM585.143 813.714c0-40.396-32.747-73.143-73.143-73.143s-73.143 32.747-73.143 73.143c0 40.396 32.747 73.143 73.143 73.143s73.143-32.747 73.143-73.143zM804.571 813.714c0-40.396-32.747-73.143-73.143-73.143s-73.143 32.747-73.143 73.143c0 40.396 32.747 73.143 73.143 73.143s73.143-32.747 73.143-73.143zM1024 813.714c0-40.396-32.747-73.143-73.143-73.143s-73.143 32.747-73.143 73.143c0 40.396 32.747 73.143 73.143 73.143s73.143-32.747 73.143-73.143z" />
<glyph unicode="&#xe940;" glyph-name="placeholder" d="M512 960c-211.776 0-384-172.224-384-384 0-266.176 346.624-615.872 361.344-630.656 6.272-6.208 14.464-9.344 22.656-9.344s16.384 3.136 22.656 9.344c14.72 14.784 361.344 364.48 361.344 630.656 0 211.776-172.224 384-384 384zM512 384c-105.856 0-192 86.144-192 192s86.144 192 192 192c105.856 0 192-86.144 192-192s-86.144-192-192-192z" />
<glyph unicode="&#xe941;" glyph-name="email" d="M957.312 680.363l-424.875 231.765c-12.757 6.955-28.117 6.955-40.875 0l-424.832-231.765c-41.173-22.4-66.731-65.451-66.731-112.384v-461.312c0-70.571 57.429-128 128-128h768c70.571 0 128 57.429 128 128v461.312c0 46.933-25.557 89.984-66.688 112.384zM107.563 605.44l404.437 220.629 404.437-220.587c13.696-7.509 22.229-21.845 22.229-37.504v-53.291l-401.664-209.792c-15.403-7.979-34.603-7.979-49.877-0.085l-401.792 209.877v53.291c0 15.659 8.533 29.995 22.229 37.461z" />
<glyph unicode="&#xe942;" glyph-name="megaphone-1" d="M766.805 829.696l-527.616-211.029h-143.189c-52.907 0-96-43.093-96-96v-117.333c0-50.261 39.467-85.333 96-85.333h36.267l38.741-271.189c2.261-15.787 15.744-27.477 31.659-27.477h128c9.131 0 17.792 3.883 23.893 10.667 6.059 6.784 8.96 15.829 7.936 24.917l-25.173 223.829 429.44-171.776c3.883-1.536 7.893-2.304 11.904-2.304 6.272 0 12.587 1.877 17.963 5.504 8.789 5.973 14.037 15.872 14.037 26.496v661.333c0 10.624-5.248 20.523-14.037 26.496-8.832 5.973-20.011 7.168-29.824 3.2zM905.344 561.664l106.667 85.333c13.781 11.051 16.043 31.189 4.992 45.013-11.093 13.739-31.189 15.957-45.013 4.992l-106.667-85.333c-13.781-11.051-16.043-31.189-4.992-45.013 6.315-7.851 15.616-11.989 25.003-11.989 7.040 0 14.080 2.304 20.011 6.997zM905.344 334.336c-13.739 10.965-33.877 8.747-45.013-4.992-11.051-13.781-8.789-33.963 4.992-45.013l106.667-85.333c5.931-4.693 12.971-6.997 20.011-6.997 9.387 0 18.688 4.139 25.003 11.989 11.051 13.781 8.789 33.963-4.992 45.013zM992 480h-106.667c-17.664 0-32-14.336-32-32s14.336-32 32-32h106.667c17.664 0 32 14.336 32 32s-14.336 32-32 32z" />
<glyph unicode="&#xe943;" glyph-name="diagonal-arrow-1" d="M1023.694 141.106l0.306 818.894-819.201-0.101-0.101-102.3h644.507l-849.205-849.202 72.397-72.397 849.205 849.202v-644.403z" />
<glyph unicode="&#xe944;" glyph-name="shopping-cart" d="M810.779 234.772c-70.404 0-127.681-57.278-127.681-127.681s57.278-127.681 127.681-127.681 127.681 57.278 127.681 127.681-57.278 127.681-127.681 127.681zM810.779 56.019c-28.166 0-51.072 22.906-51.072 51.072s22.906 51.072 51.072 51.072c28.166 0 51.072-22.906 51.072-51.072s-22.906-51.072-51.072-51.072zM1015.86 728.249c-7.252 9.282-18.374 14.696-30.158 14.696h-749.26l-34.474 144.241c-4.124 17.236-19.536 29.404-37.258 29.404h-126.405c-21.156 0.002-38.304-17.146-38.304-38.302s17.148-38.304 38.304-38.304h96.171l124.489-520.889c4.124-17.25 19.536-29.404 37.258-29.404h596.273c17.608 0 32.954 12.002 37.18 29.086l93.209 376.66c2.82 11.438 0.228 23.53-7.024 32.812zM862.527 366.297h-536.071l-71.706 300.040h682.010l-74.232-300.040zM347.294 234.772c-70.404 0-127.681-57.278-127.681-127.681s57.278-127.681 127.681-127.681 127.681 57.278 127.681 127.681-57.278 127.681-127.681 127.681zM347.294 56.019c-28.166 0-51.072 22.906-51.072 51.072s22.906 51.072 51.072 51.072 51.072-22.906 51.072-51.072-22.906-51.072-51.072-51.072z" />
<glyph unicode="&#xe945;" glyph-name="mail1" d="M948.8 600.32l-116.8 101.12v66.56c0 17.673-14.327 32-32 32v0h-122.88l-148.48 91.2c-4.59 2.695-10.109 4.287-16 4.287s-11.41-1.592-16.151-4.369l0.151 0.082-149.44-91.2h-123.2c-17.673 0-32-14.327-32-32v0-66.56l-116.8-101.12c-6.873-5.904-11.2-14.606-11.2-24.318 0-0.001 0-0.001 0-0.002v0-544c0-17.673 14.327-32 32-32v0h832c17.673 0 32 14.327 32 32v0 544c0 0.001 0 0.001 0 0.002 0 9.712-4.327 18.414-11.158 24.282l-0.042 0.036zM877.44 576l-45.44-33.6v74.24zM512 826.56l42.88-26.56h-85.76zM768 736v-242.56l-256-197.12-256 197.12v242.56zM192 542.4l-45.44 33.6 45.44 40.64zM128 64v448l363.2-280.32c5.341-4.144 12.139-6.643 19.52-6.643s14.179 2.499 19.593 6.698l-0.073-0.054 365.76 280.32v-448zM320 640c0 17.673 14.327 32 32 32v0h320c17.673 0 32-14.327 32-32s-14.327-32-32-32v0h-320c-17.673 0-32 14.327-32 32v0zM320 512c0 17.673 14.327 32 32 32v0h160c17.673 0 32-14.327 32-32s-14.327-32-32-32v0h-160c-17.673 0-32 14.327-32 32v0z" />
<glyph unicode="&#xe946;" glyph-name="book" d="M994.932 715.692c-1.926 0.066-41.474 1.401-99.529 0.118v119.029c0 17.547-14.983 31.463-32.623 30.013-115.756-9.664-263.029-60.814-350.78-154.108-87.751 93.294-235.024 144.444-350.78 154.108-17.609 1.434-32.623-12.421-32.623-30.013v-122.248c-32.985 1.245-64.185 2.122-97.585 3.104-16.846 0.532-31.011-13.037-31.011-30.104v-548.483c0-15.85 12.282-28.987 28.096-30.049 119.804-8.063 320.486-8.971 472.090-73.632 13.511-5.771 25.64 0.857 23.632 0 151.6 64.659 352.246 65.564 472.090 73.632 15.812 1.062 28.096 14.199 28.096 30.049v548.483c-0.004 16.225-12.856 29.533-29.072 30.1zM835.168 800.965v-516.192c-86.851-19.428-196.919-60.886-293.051-148.791 0 26.514 0 503.356 0 517.696 65.897 82.221 190.697 131.779 293.051 147.287zM188.832 800.965c102.354-15.509 227.153-65.066 293.051-147.287v-517.696c-96.132 87.905-206.199 129.363-293.051 148.791zM60.235 165.45v489.125c21.566-0.638 44.632-1.359 68.361-2.265v-392.086c0-14.491 10.32-26.927 24.562-29.6 68.771-12.908 158.2-40.926 241.55-101.254-118.915 26.67-243.385 30.957-334.473 36.079zM963.765 165.45c-90.939-5.114-215.512-9.397-334.475-36.079 83.35 60.328 172.781 88.345 241.55 101.254 14.242 2.672 24.562 15.109 24.562 29.6v395.33c27.72 0.62 51.331 0.628 68.361 0.474v-490.578zM403.791 584.3c-23.327 16.251-63.542 36.199-106.46 43.452-16.394 2.783-31.943-8.278-34.716-24.678-2.771-16.4 8.278-31.943 24.68-34.714 33.135-5.6 64.916-21.536 82.063-33.483 13.643-9.505 32.417-6.156 41.928 7.495 9.507 13.647 6.152 32.421-7.495 41.928zM400.776 414.698c-21.462 13.105-63.44 36.103-103.444 42.863-16.394 2.779-31.943-8.276-34.716-24.678-2.771-16.402 8.278-31.943 24.68-34.714 31.164-5.267 67.785-26.144 82.083-34.878 14.214-8.676 32.742-4.174 41.402 10.005 8.67 14.195 4.19 32.73-10.005 41.402zM654.641 534.877c17.147 11.947 48.927 27.883 82.063 33.483 16.4 2.771 27.449 18.314 24.68 34.714-2.771 16.402-18.32 27.467-34.716 24.678-42.918-7.25-83.133-27.2-106.46-43.452-13.647-9.507-17.002-28.28-7.495-41.928 9.513-13.655 28.293-16.996 41.928-7.495zM726.669 457.559c-40.004-6.758-81.982-29.756-103.444-42.863-14.195-8.67-18.675-27.206-10.005-41.402 8.67-14.193 27.204-18.673 41.402-10.005 14.298 8.734 50.919 29.612 82.083 34.878 16.4 2.771 27.449 18.312 24.68 34.714-2.773 16.402-18.32 27.467-34.716 24.678z" />
<glyph unicode="&#xe947;" glyph-name="book-with-bookmark" d="M910.381 960h-684.285c-79.999-0.022-145.076-65.112-145.076-145.102v-733.801c0-79.99 65.081-145.080 145.084-145.097h684.281c18.008 0 32.599 14.596 32.599 32.599v958.801c-0.004 18.003-14.596 32.599-32.604 32.599zM391.839 894.801v-165.552l-10.471 10.475c-6.111 6.116-14.405 9.549-23.054 9.549s-16.943-3.438-23.059-9.554l-10.458-10.462v165.544h67.042zM226.104 894.801h33.499v-244.251c0-18.003 14.618-32.599 32.625-32.599 8.65 0 16.943 3.434 23.059 9.554l43.035 43.057 43.048-43.061c6.111-6.116 14.405-9.549 23.054-9.549h0.017c18.008 0 32.599 14.596 32.599 32.599v244.251h420.744v-668.603h-651.69c-29.496-0.009-56.953-8.884-79.877-24.071v612.771c0 44.044 35.842 79.89 79.886 79.903zM226.113 1.199c-44.057 0.009-79.894 35.851-79.894 79.899s35.842 79.894 79.886 79.907h651.681v-47.308h-651.681c-18.008 0-32.599-14.596-32.599-32.599s14.591-32.599 32.599-32.599h651.681v-47.299h-651.673z" />
<glyph unicode="&#xe948;" glyph-name="upload" d="M512 960l-204.8-256h102.4v-460.8h204.8v460.8h102.4zM921.6 550.4h-204.8v-102.4h204.8v-409.6h-819.2v409.6h204.8v102.4h-204.8c-56.32 0-102.4-46.080-102.4-102.4v-409.6c0-56.32 46.080-102.4 102.4-102.4h819.2c56.32 0 102.4 46.080 102.4 102.4v409.6c0 56.32-46.080 102.4-102.4 102.4z" />
<glyph unicode="&#xe949;" glyph-name="startup-1" d="M277.529-61.55l-56.54 56.54 120.938 120.938 56.54-56.54-120.938-120.938zM2.082 213.901l120.938 120.938 56.54-56.54-120.938-120.938-56.54 56.54zM2.081-4.988l190.903 190.903 56.54-56.54-190.903-190.903-56.54 56.54zM542.103 440.499c0-22.080-17.9-39.98-39.98-39.98s-39.98 17.9-39.98 39.98c0 22.080 17.9 39.98 39.98 39.98s39.98-17.9 39.98-39.98zM980.236 958.208c-3.084-0.126-76.632-3.43-174.13-30.56-129.834-36.126-241.268-98.030-322.259-179.016-52.32-52.32-102.174-116.69-143.988-176.588l-38.284 38.284c-29.48 29.482-68.674 45.84-110.366 46.064-0.29 0-0.578 0.002-0.868 0.002-41.312 0-80.294-15.876-109.868-44.76l-80.098-77.174v-75.968h45.53c42.454 0 82.362-16.54 112.364-46.564l317.597-318.025c30.032-30.006 46.572-69.916 46.572-112.372v-45.53h75.968l77.174 80.102c29.088 29.78 44.982 69.1 44.758 110.734-0.224 41.69-16.582 80.884-46.062 110.364l-38.54 38.54c59.786 42.030 124.128 92.094 176.52 144.486 80.988 80.99 142.89 192.424 179.016 322.257 27.128 97.498 30.432 171.046 30.56 174.13l1.794 43.386-43.39-1.792zM250.344 432.877l-35.508 35.556c-29.432 29.458-65.198 50.282-104.23 61.196l25.676 24.74c30.14 29.5 78.928 29.236 108.748-0.584l49.47-49.47c-17.618-27.388-32.59-51.932-44.156-71.438zM618.315 71.908l-24.74-25.678c-10.912 39.028-31.728 74.788-61.166 104.2l-35.308 35.356c19.384 11.618 43.824 26.67 71.116 44.38l49.514-49.51c29.824-29.82 30.086-78.604 0.584-108.748zM755.711 476.765c-101.158-101.158-256.003-196.67-316.967-232.54l-129.956 130.13c35.534 61.12 130.336 216.47 231.598 317.735 56.49 56.49 123.118 95.558 184.876 122.402l152.846-152.846c-26.84-61.758-65.908-128.39-122.398-184.88zM913.672 761.892c-1.598-5.688-3.324-11.56-5.16-17.568l-100.564 100.564c6.006 1.836 11.88 3.56 17.568 5.158 44.208 12.422 83.322 19.47 111.578 23.422-3.954-28.258-11.002-67.368-23.422-111.576zM652.049 548.447c0-22.080-17.9-39.98-39.98-39.98s-39.98 17.9-39.98 39.98c0 22.080 17.9 39.98 39.98 39.98s39.98-17.9 39.98-39.98zM763.993 658.389c0-22.080-17.9-39.98-39.98-39.98s-39.98 17.9-39.98 39.98c0 22.080 17.9 39.98 39.98 39.98s39.98-17.9 39.98-39.98z" />
<glyph unicode="&#xe94a;" glyph-name="businessman-1" d="M874.040 298.040c-55.766 55.764-122.142 97.046-194.562 122.036 77.564 53.422 128.522 142.828 128.522 243.924 0 163.214-132.786 296-296 296s-296-132.786-296-296c0-101.096 50.958-190.502 128.524-243.926-72.42-24.988-138.796-66.27-194.562-122.036-96.704-96.704-149.962-225.278-149.962-362.038h80c0 153.792 80.796 289.050 202.156 365.616l104.826-126.024 85.018 71.596v-311.188h80v312.096l87.372-72.376 103.29 125.386c120.906-76.656 201.338-211.658 201.338-365.106h80c0 136.76-53.258 265.334-149.96 362.040zM397.018 288.63l-41.586 49.996c42.264 16.492 87.734 26.52 135.198 28.842l-93.612-78.838zM296 664c0 119.102 96.898 216 216 216s216-96.898 216-216c0-119.102-96.898-216-216-216s-216 96.898-216 216zM628.628 288.502l-95.33 78.968c47.874-2.336 93.724-12.498 136.298-29.236l-40.968-49.732z" />
<glyph unicode="&#xe94b;" glyph-name="credit-card" d="M136 574.024h388v-80h-388v80zM904 926.024h-784c-66.168 0-120-53.832-120-120v-512c0-66.168 53.832-120 120-120h344v80h-344c-22.056 0-40 17.944-40 40v340h864v-92.244h80v264.244c0 66.168-53.832 120-120 120zM944 754.024h-864v52c0 22.056 17.944 40 40 40h784c22.056 0 40-17.944 40-40v-52zM956.97 472.078c-48.212 8.666-94.092 37.066-111.58 48.876-18.242 12.318-39.47 18.828-61.39 18.828s-43.148-6.51-61.392-18.828c-17.486-11.808-63.366-40.208-111.578-48.876-38.84-6.988-67.030-40.676-67.030-80.108v-124.792c0-187.908 214.56-285.846 223.696-289.922l16.304-7.28 16.304 7.28c9.136 4.076 223.696 102.012 223.696 289.92v124.792c0 39.434-28.19 73.122-67.030 80.11zM944.004 267.176h-0.004c0-110.848-116.31-184.708-159.996-208.536-43.746 23.86-160.004 97.712-160.004 208.536v124.792c0 0.68 0.49 1.244 1.188 1.37 60.936 10.956 115.242 43.118 142.188 61.312 4.97 3.356 10.718 5.128 16.626 5.128s11.654-1.774 16.624-5.128c26.948-18.196 81.254-50.358 142.19-61.312 0.7-0.126 1.188-0.69 1.188-1.37v-124.792z" />
<glyph unicode="&#xe94c;" glyph-name="call-center-agent" d="M864 256h-232v13.706c68.728 24.324 122.154 78.892 146.15 146.294h53.85c66.168 0 120 53.832 120 120v64c0 66.168-53.832 120-120 120h-40v40c0 110.28-89.718 200-200 200h-160c-110.28 0-200-89.72-200-200v-40h-40c-66.168 0-120-53.832-120-120v-64c0-66.168 53.832-120 120-120h53.85c23.996-67.404 77.42-121.972 146.15-146.294v-13.706h-232c-88.224 0-160-71.776-160-160v-160h1024v160c0 88.224-71.776 160-160 160zM832 640c22.056 0 40-17.944 40-40v-64c0-22.056-17.944-40-40-40h-40v144zM432 880h160c66.168 0 120-53.832 120-120v-40h-80c-44.112 0-80 35.88-80 79.98v0.020l-80-0.020c0-44.102-35.888-79.98-80-79.98h-80v40c0 66.168 53.832 120 120 120zM192 496c-22.056 0-40 17.944-40 40v64c0 22.056 17.944 40 40 40h40v-144zM312 496v144h80c47.754 0 90.658 21.052 120 54.332 29.342-33.28 72.246-54.332 120-54.332h80v-144h-200v-80h178.428c-22.37-38.6-60.472-67.444-106.386-76.766l-32.042-6.506v-156.728h45.26l-85.26-127.888-85.258 127.888h45.258v156.728l-32.042 6.506c-74.144 15.054-127.958 80.984-127.958 156.766zM80 96c0 44.112 35.888 80 80 80h170.592l106.666-160h-357.258zM944 16h-357.26l106.666 160h170.594c44.112 0 80-35.888 80-80z" />
<glyph unicode="&#xe94d;" glyph-name="report-1" d="M152 648h400v-80h-400zM152 488h400v-80h-400zM152 328h240v-80h-240zM784 648v-160h-160v-160h-160v-160h-160v-232h720v712zM784 408v-392h-80v392zM624 248v-232h-80v232zM384 88h80v-72h-80zM944 16h-80c0 53.682 0 495.234 0 552h80zM80 56v784c0 22.056 17.944 40 40 40h464c22.056 0 40-17.944 40-40v-272h80v272c0 66.168-53.832 120-120 120h-464c-66.168 0-120-53.832-120-120v-784c0-66.168 53.832-120 120-120h104v80h-104c-22.056 0-40 17.944-40 40z" />
</font>
</defs>
</svg>
